ant man 720p | australia | babes.com 720p
hindi american horror story etrg doctor who 2018 ita 0 star trek discovery español ddr Chicago ita The flash Lia M big bang theory español the walking dead ETRG ita 2018 nfl daredevil The Big Bang Theory lucifer WINDOWS 10 evo NASCAR Big bang theory Ncis fear the walking dead Game Of Thrones dtone 2160p porn ufc ant man 1080p 2018 SUPERNATURAL Dtone High Castle s03e07 empire modern family star trek discovery etmovies SURVIVOR incredibles 2 the last ship 1080p YIFY formula "Lia M" better call saul wwe Avengers blindspot ARROW ethd Lethal weapon Z nation south park bbc vikings ıt 2017 office 2019 Venom criminal minds doctor who s11e03 fgt ettv shameless formula 1 greys anatomy the good doctor 
Warning! Do not Download Without a VPN!
Your IP Address is .   Location is
Download and surf securely, stream unlimited and protect your personal data!
We strongly recommend using SpyOFF VPN!
Become Anonymous with SpyOFF
ETTV Recommended TV Shows
Supergirl.S04E02.HDTV.x264-SVA[ettv] torrent
The.Last.Ship.S05E07.WEBRip.x264-TBS[ettv] torrent
The.Walking.Dead.S09E03.HDTV.x264-SVA[ettv] torrent
Charmed.2018.S01E02.WEB.h264-TBS[ettv] torrent

ETTV Recommended Xvid
No.Escape.Room.2018.HDRip.XViD-ETRG torrent
Tales.of.Frankenstein.2018.HDRip.XviD.AC3-EVO torrent
The.Dark.2018.HDRip.XviD.AC3-EVO torrent
Incredibles.2.2018.HDRip.XViD-ETRG torrent

ETTV Recommended HD
Malicious.2018.1080p.WEB-DL.H264.AC3-EVO[EtHD] torrent
The.Night.Come.For.Us.2018.Multi.1080p.NF.WebDL.AVC.DDP.5.1-DTOne torrent
Thunder.Road.2018.1080p.WEB-DL.H264.AC3-EVO[EtHD] torrent
Incredibles.2.2018.1080p.WEB-DL.DD5.1.H264-CMRG[EtHD] torrent

ETTV Recommended UHD
Constantine.City.of.Demons.2018.2160p.BluRay.x265.10bit.HDR.DTS-HD.MA.5.1-SWTYBLZ[EtHD] torrent
Your.Name.2016.2160p.UHD.BluRay.x265-VALiS[EtHD] torrent
Peter.Rabbit.2018.PLDUB.DUAL.2160p.UHD.BluRay.x265-FLAME[EtHD] torrent
Death.Wish.2018 BluRay 2160p DTS MA5 1 x265 10bit-CHD[EtHD] torrent

ETTV Recommended Cam
Bad Times at the El Royale 2018.HDCAM.XViD.AC3-ETRG torrent
Goosebumps 2 Haunted Halloween 2018 HDTS.x264.AC3-ETRG torrent
Halloween 2018.HDCAM.XViD.AC3-ETRG torrent
Night School 2018 HDTS XViD AC3-ETRG torrent

ETTV Recommended Foreign
The.Night.Comes.For.Us.2018.1080p.NF.WEB-DL.DD5.1.H264-CMRG[EtHD] torrent
Rangasthalam (2018) [TELUGU - 720p - WEB HDRip - x264 - DD 5.1 - ESub - 2GB] - MAZE torrent
The Avengers Trilogy (2012-2018) 1080p BluRay x264 Dual Audio [Hindi - English] DD5.1 - ESUB ~ Ranvijay torrent
Naa.Bangaaru.Talli.2013.1080p.NF.WebDL.AVC.DDP.5.1-DTOne torrent

Social


Download Torrent "The Big Bang Theory (2007) Season 1 S01 + Extras (1080p BluRay x265 HEVC 10..."

IMDB Details
Description:

N/A

Genre:

N/A

Download Torrent (Magnet)
Download Torrent (File)
Seeds: 200
Leechers: 153
Completed: 1,406 
Last Checked: 08-10-2018 07:43:05


Loading...
Details
Title:The Big Bang Theory (2007) Season 1 S01 + Extras (1080p BluRay x265 HEVC 10...
Description:


Note from Encoder:
Pilot episode recieved alternative encoding preferences due to the grainy upscale. Includes additional audio tracks and featurettes as usual.



Encode Screenshots (Click for full quality)




Media Information
General
Format                                   : Matroska
Format version                           : Version 4 / Version 2
File size                                : 792 MiB
Duration                                 : 21 min 9 s
Overall bit rate                         : 5 232 kb/s
Encoded date                             : UTC 2018-10-02 09:32:21
Writing application                      : mkvmerge v20.0.0 ('I Am The Sun') 64-bit
Writing library                          : libebml v1.3.5 + libmatroska v1.4.8
Cover                                    : Yes
Attachments                              : cover.jpg
Writing frontend                         : StaxRip v1.7.0.6

Video
ID                                       : 1
Format                                   : HEVC
Format/Info                              : High Efficiency Video Coding
Format profile                           : Main [email protected]@Main
Codec ID                                 : V_MPEGH/ISO/HEVC
Duration                                 : 21 min 8 s
Bit rate                                 : 4 611 kb/s
Width                                    : 1 920 pixels
Height                                   : 1 080 pixels
Display aspect ratio                     : 16:9
Frame rate mode                          : Constant
Frame rate                               : 23.976 (24000/1001) FPS
Color space                              : YUV
Chroma subsampling                       : 4:2:0
Bit depth                                : 10 bits
Bits/(Pixel*Frame)                       : 0.093
Stream size                              : 697 MiB (88%)
Writing library                          : x265 2.8+68-fa57fa584898:[Windows][MSVC 1900][64 bit] 10bit
Encoding settings                        : cpuid=1111039 / frame-threads=3 / numa-pools=8 / wpp / no-pmode / no-pme / no-psnr / no-ssim / log-level=2 / input-csp=1 / input-res=1920x1080 / interlace=0 / total-frames=30409 / level-idc=0 / high-tier=1 / uhd-bd=0 / ref=5 / no-allow-non-conformance / no-repeat-headers / annexb / no-aud / no-hrd / info / hash=0 / no-temporal-layers / open-gop / min-keyint=23 / keyint=250 / gop-lookahead=0 / bframes=8 / b-adapt=2 / b-pyramid / bframe-bias=0 / rc-lookahead=80 / lookahead-slices=4 / scenecut=40 / radl=0 / no-intra-refresh / ctu=64 / min-cu-size=8 / no-rect / no-amp / max-tu-size=32 / tu-inter-depth=1 / tu-intra-depth=1 / limit-tu=0 / rdoq-level=2 / dynamic-rd=0.00 / no-ssim-rd / signhide / no-tskip / nr-intra=0 / nr-inter=0 / no-constrained-intra / no-strong-intra-smoothing / max-merge=4 / limit-refs=3 / limit-modes / me=3 / subme=5 / merange=57 / temporal-mvp / weightp / weightb / no-analyze-src-pics / deblock=-3:-3 / no-sao / no-sao-non-deblock / rd=4 / no-early-skip / no-rskip / no-fast-intra / no-tskip-fast / no-cu-lossless / b-intra / no-splitrd-skip / rdpenalty=0 / psy-rd=1.60 / psy-rdoq=1.80 / no-rd-refine / no-lossless / cbqpoffs=0 / crqpoffs=0 / rc=crf / crf=21.0 / qcomp=0.60 / qpstep=4 / stats-write=0 / stats-read=0 / ipratio=1.40 / pbratio=1.30 / aq-mode=2 / aq-strength=0.80 / cutree / zone-count=0 / no-strict-cbr / qg-size=32 / no-rc-grain / qpmax=69 / qpmin=0 / no-const-vbv / sar=0 / overscan=0 / videoformat=5 / range=0 / colorprim=2 / transfer=2 / colormatrix=2 / chromaloc=0 / display-window=0 / max-cll=0,0 / min-luma=0 / max-luma=1023 / log2-max-poc-lsb=8 / vui-timing-info / vui-hrd-info / slices=1 / no-opt-qp-pps / no-opt-ref-list-length-pps / no-multi-pass-opt-rps / scenecut-bias=0.05 / no-opt-cu-delta-qp / no-aq-motion / no-hdr / no-hdr-opt / no-dhdr10-opt / no-idr-recovery-sei / analysis-reuse-level=5 / scale-factor=0 / refine-intra=0 / refine-inter=0 / refine-mv=0 / no-limit-sao / ctu-info=0 / no-lowpass-dct / refine-mv-type=0 / copy-pic=1 / max-ausize-factor=1.0 / no-dynamic-refine / no-single-sei
Default                                  : Yes
Forced                                   : No

Audio #1
ID                                       : 2
Format                                   : AAC
Format/Info                              : Advanced Audio Codec
Format profile                           : LC
Codec ID                                 : A_AAC
Duration                                 : 21 min 9 s
Bit rate                                 : 414 kb/s
Channel(s)                               : 6 channels
Channel positions                        : Front: L C R, Side: L R, LFE
Sampling rate                            : 48.0 kHz
Frame rate                               : 46.875 FPS (1024 spf)
Compression mode                         : Lossy
Delay relative to video                  : 20 ms
Stream size                              : 62.6 MiB (8%)
Language                                 : English
Default                                  : No
Forced                                   : No

Audio #2
ID                                       : 3
Format                                   : AAC
Format/Info                              : Advanced Audio Codec
Format profile                           : HE-AAC / LC
Codec ID                                 : A_AAC
Duration                                 : 21 min 9 s
Bit rate                                 : 80.0 kb/s
Channel(s)                               : 2 channels
Channel positions                        : Front: L R
Sampling rate                            : 48.0 kHz / 24.0 kHz
Frame rate                               : 23.438 FPS (1024 spf)
Compression mode                         : Lossy
Delay relative to video                  : 40 ms
Stream size                              : 12.1 MiB (2%)
Language                                 : German
Default                                  : No
Forced                                   : No

Audio #3
ID                                       : 4
Format                                   : AAC
Format/Info                              : Advanced Audio Codec
Format profile                           : HE-AAC / LC
Codec ID                                 : A_AAC
Duration                                 : 21 min 9 s
Bit rate                                 : 80.0 kb/s
Channel(s)                               : 2 channels
Channel positions                        : Front: L R
Sampling rate                            : 48.0 kHz / 24.0 kHz
Frame rate                               : 23.438 FPS (1024 spf)
Compression mode                         : Lossy
Delay relative to video                  : 40 ms
Stream size                              : 12.1 MiB (2%)
Language                                 : Spanish
Default                                  : No
Forced                                   : No

Subtitle #1
ID                                       : 5
Format                                   : VobSub
Muxing mode                              : zlib
Codec ID                                 : S_VOBSUB
Codec ID/Info                            : Picture based subtitle format used on DVDs
Duration                                 : 21 min 2 s
Bit rate                                 : 15.9 kb/s
Count of elements                        : 364
Stream size                              : 2.39 MiB (0%)
Language                                 : English
Default                                  : No
Forced                                   : No

Subtitle #2
ID                                       : 6
Format                                   : VobSub
Muxing mode                              : zlib
Codec ID                                 : S_VOBSUB
Codec ID/Info                            : Picture based subtitle format used on DVDs
Duration                                 : 21 min 2 s
Bit rate                                 : 16.1 kb/s
Count of elements                        : 352
Stream size                              : 2.42 MiB (0%)
Language                                 : French
Default                                  : No
Forced                                   : No

Subtitle #3
ID                                       : 7
Format                                   : VobSub
Muxing mode                              : zlib
Codec ID                                 : S_VOBSUB
Codec ID/Info                            : Picture based subtitle format used on DVDs
Duration                                 : 21 min 2 s
Bit rate                                 : 19.0 kb/s
Count of elements                        : 380
Stream size                              : 2.86 MiB (0%)
Language                                 : German
Default                                  : No
Forced                                   : No

Subtitle #4
ID                                       : 8
Format                                   : VobSub
Muxing mode                              : zlib
Codec ID                                 : S_VOBSUB
Codec ID/Info                            : Picture based subtitle format used on DVDs
Duration                                 : 21 min 2 s
Bit rate                                 : 14.4 kb/s
Count of elements                        : 352
Stream size                              : 2.17 MiB (0%)
Language                                 : Spanish
Default                                  : No
Forced                                   : No

Subtitle #5
ID                                       : 9
Format                                   : VobSub
Muxing mode                              : zlib
Codec ID                                 : S_VOBSUB
Codec ID/Info                            : Picture based subtitle format used on DVDs
Duration                                 : 21 min 2 s
Bit rate                                 : 14.3 kb/s
Count of elements                        : 353
Stream size                              : 2.15 MiB (0%)
Language                                 : Spanish
Default                                  : No
Forced                                   : No

Menu
00:00:00.000                             : en:Chapter 01
00:04:06.287                             : en:Chapter 02
00:10:53.361                             : en:Chapter 03
00:18:47.292                             : en:Chapter 04
00:20:40.697                             : en:Chapter 05

Source Information
Release : The.Big.Bang.Theory.S01.1080p.BluRay.DTS-HD.MA5.1.H.264-Xes (Thanks!)



Note from QxR:
Whilst we are happy for our releases to be re-posted on a platform we aren't on, please do so in an 'as-is' format. We ask that you do not create a new torrent, include all descriptions you see above including the QxR logo, tags, notes and screenshots. If you'd like to become a permanent poster on a website we don't post to, feel free to get in contact with a QxR member.
Category:TV > HEVC/x265
Lang:English  English
Total Size:12.80 GB
Info Hash:90956cc86e8ccfa9af981b4101f7688642333e06
Added By:QxR
Date Added:08-10-2018 07:43:01

Files

File List: 
 File Size
Featurettes/Gag Reel.mkv126 MB
Featurettes/Quantum Mechanics of The Big Bang Theory.mkv105 MB
The Big Bang Theory (2007) - S01E01 - Pilot (1080p BluRay x265 RCVR).mkv1.13 GB
The Big Bang Theory (2007) - S01E02 - The Big Bran Hypothesis (1080p BluRay x265 RCVR).mkv792 MB
The Big Bang Theory (2007) - S01E03 - The Fuzzy Boots Corollary (1080p BluRay x265 RCVR).mkv818 MB
The Big Bang Theory (2007) - S01E04 - The Luminous Fish Effect (1080p BluRay x265 RCVR).mkv907 MB
The Big Bang Theory (2007) - S01E05 - The Hamburger Postulate (1080p BluRay x265 RCVR).mkv871 MB
The Big Bang Theory (2007) - S01E06 - The Middle Earth Paradigm (1080p BluRay x265 RCVR).mkv898 MB
The Big Bang Theory (2007) - S01E07 - The Dumpling Paradox (1080p BluRay x265 RCVR).mkv843 MB
The Big Bang Theory (2007) - S01E08 - The Grasshopper Experiment (1080p BluRay x265 RCVR).mkv654 MB
The Big Bang Theory (2007) - S01E09 - The Cooper-Hofstadter Polarization (1080p BluRay x265 RCVR).mkv722 MB
The Big Bang Theory (2007) - S01E10 - The Loobenfeld Decay (1080p BluRay x265 RCVR).mkv638 MB
The Big Bang Theory (2007) - S01E11 - The Pancake Batter Anomaly (1080p BluRay x265 RCVR).mkv650 MB
The Big Bang Theory (2007) - S01E12 - The Jerusalem Duality (1080p BluRay x265 RCVR).mkv658 MB
The Big Bang Theory (2007) - S01E13 - The Bat Jar Conjecture (1080p BluRay x265 RCVR).mkv711 MB
The Big Bang Theory (2007) - S01E14 - The Nerdvana Annihilation (1080p BluRay x265 RCVR).mkv657 MB
The Big Bang Theory (2007) - S01E15 - The Pork Chop Indeterminacy (1080p BluRay x265 RCVR).mkv638 MB
The Big Bang Theory (2007) - S01E16 - The Peanut Reaction (1080p BluRay x265 RCVR).mkv653 MB
The Big Bang Theory (2007) - S01E17 - The Tangerine Factor (1080p BluRay x265 RCVR).mkv600 MB



Loading...
Comments

There are currently no comments. Be the first one to write something !

Disclaimer: None of the files shown here are actually hosted or transmitted by this server. The links are provided solely by this site's users. The site moderation is also a service provided by the site's users. The administrator of this site (ettv.tv) cannot be held responsible for what its users post, or any other actions of its users. You may not use this site to distribute or download any material when you do not have the legal rights to do so. It is your own responsibility to adhere to these terms.

Sitemap