Vampire's Fall: Origins | The Jim Gaffigan Show | Riverdale Season 3 Episode 4 s03e04
ncis daredevil Star Trek Discovery mr robot en español dtone High Castle s03e07 0 Mile 22 2160p It 1080p 2018 Survivor the flash s05e03 ettv the good doctor supergirl the walking dead Flash great british bake off s09e09 DTOne better call saul etmovies 9-1-1 s02e04 1080p YIFY Vikings Manifest doctor who it 2017 shameless legends of tomorrow the walking dead s09e03 Supernatural this is us wwe incredibles 2 flash s05e03 NFL family guy hindi Ufc evo star trek discovery español big bang theory español venom fgt ethd Ethd Arrow s07e02 greys anatomy mayans season complete the big bang theory the flash american horror story Scorpion empire porn windows 10 Game Of Thrones lethal weapon lucifer south park ddr big bang theory Evo etrg arrow 2018 ita blindspot walking dead ita 
Warning! Do not Download Without a VPN!
Your IP Address is .   Location is
Download and surf securely, stream unlimited and protect your personal data!
We strongly recommend using SpyOFF VPN!
Become Anonymous with SpyOFF
ETTV Recommended TV Shows
SEAL.Team.S02E04.HDTV.x264-SHiTSPREAD[ettv] torrent
Greys.Anatomy.S15E05.HDTV.x264-KILLERS[ettv] torrent
Chicago.Fire.S07E05.HDTV.x264-SVA[ettv] torrent
American.Horror.Story.S08E07.WEBRip.x264-TBS[ettv] torrent

ETTV Recommended Xvid
Mile.22.2018.HDRip.XviD.AC3-EVO[EtMovies] torrent
The.Scorpion.King.Book.of.Souls.2018.HDRip.XViD-ETRG torrent
BlacKkKlansman.2018.HDRip.XViD.AC3-ETRG torrent
A.Happening.of.Monumental.Proportions.2018.HDRip.XViD-ETRG torrent

ETTV Recommended HD
Incredibles.2.2018.1080p.WEB-DL.DD5.1.H264-CMRG[EtHD] torrent
BlacKkKlansman.2018.1080p.WEB-DL.DD5.1.H264-CMRG[EtHD] torrent
Scorpion.King.The.Book.of.Souls.2018.1080p.WEB-DL.H264.AC3-EVO[EtHD] torrent
Mile.22.2018.1080p.HDRip.X264.AC3-EVO[EtHD] torrent

ETTV Recommended UHD
Constantine.City.of.Demons.2018.2160p.BluRay.x265.10bit.HDR.DTS-HD.MA.5.1-SWTYBLZ[EtHD] torrent
Your.Name.2016.2160p.UHD.BluRay.x265-VALiS[EtHD] torrent
Peter.Rabbit.2018.PLDUB.DUAL.2160p.UHD.BluRay.x265-FLAME[EtHD] torrent
Death.Wish.2018 BluRay 2160p DTS MA5 1 x265 10bit-CHD[EtHD] torrent

ETTV Recommended Cam
Bad Times at the El Royale 2018.HDCAM.XViD.AC3-ETRG torrent
Goosebumps 2 Haunted Halloween 2018 HDTS.x264.AC3-ETRG torrent
Halloween 2018.HDCAM.XViD.AC3-ETRG torrent
Night School 2018 HDTS XViD AC3-ETRG torrent

ETTV Recommended Foreign
The Avengers Trilogy (2012-2018) 1080p BluRay x264 Dual Audio [Hindi - English] DD5.1 - ESUB ~ Ranvijay torrent
Naa.Bangaaru.Talli.2013.1080p.NF.WebDL.AVC.DDP.5.1-DTOne torrent
Insidious The Last Key (2017) 1080p BluRay x264 Dual Audio [Hindi DD5.1 640 Kbps - English DD5.1] - MSUBS ~ Ranvijay torrent
Chotay Shah 2016 Hindi Untouched WebDL 1080p x264 - mkvCinemas torrent

Social


Download Torrent "The Big Bang Theory (2007) Season 11 S11 (1080p BluRay x265 10bit HEVC AAC ..."

IMDB Details
Description:

N/A

Genre:

N/A

Download Torrent (Magnet)
Download Torrent (File)
Seeds: 139
Leechers: 125
Completed: 1,290 
Last Checked: 09-10-2018 13:49:38


Loading...
Details
Title:The Big Bang Theory (2007) Season 11 S11 (1080p BluRay x265 10bit HEVC AAC ...
Description:





Media Information
General
Format                                   : Matroska
Format version                           : Version 4 / Version 2
File size                                : 481 MiB
Duration                                 : 20 min 41 s
Overall bit rate                         : 3 246 kb/s
Encoded date                             : UTC 2018-09-27 21:05:38
Writing application                      : mkvmerge v24.0.0 ('Beyond The Pale') 64-bit
Writing library                          : libebml v1.3.6 + libmatroska v1.4.9
Writing frontend                         : StaxRip v1.8.2.0

Video
ID                                       : 1
Format                                   : HEVC
Format/Info                              : High Efficiency Video Coding
Format profile                           : Main [email protected]@Main
Codec ID                                 : V_MPEGH/ISO/HEVC
Duration                                 : 20 min 41 s
Bit rate                                 : 3 026 kb/s
Width                                    : 1 920 pixels
Height                                   : 1 080 pixels
Display aspect ratio                     : 16:9
Frame rate mode                          : Constant
Frame rate                               : 23.976 (24000/1001) FPS
Color space                              : YUV
Chroma subsampling                       : 4:2:0
Bit depth                                : 10 bits
Bits/(Pixel*Frame)                       : 0.061
Stream size                              : 448 MiB (93%)
Writing library                          : x265 2.8+19-bcdc610cf5f0:[Windows][MSVC 1914][64 bit] 10bit
Encoding settings                        : cpuid=1111039 / frame-threads=3 / numa-pools=8 / wpp / no-pmode / no-pme / no-psnr / ssim / log-level=2 / input-csp=1 / input-res=1920x1080 / interlace=0 / total-frames=29777 / level-idc=0 / high-tier=1 / uhd-bd=0 / ref=4 / no-allow-non-conformance / no-repeat-headers / annexb / no-aud / no-hrd / info / hash=0 / no-temporal-layers / open-gop / min-keyint=23 / keyint=250 / gop-lookahead=0 / bframes=4 / b-adapt=2 / b-pyramid / bframe-bias=0 / rc-lookahead=25 / lookahead-slices=4 / scenecut=40 / radl=0 / no-intra-refresh / ctu=64 / min-cu-size=8 / rect / no-amp / max-tu-size=32 / tu-inter-depth=1 / tu-intra-depth=1 / limit-tu=0 / rdoq-level=2 / dynamic-rd=0.00 / ssim-rd / signhide / no-tskip / nr-intra=0 / nr-inter=0 / no-constrained-intra / strong-intra-smoothing / max-merge=3 / limit-refs=3 / limit-modes / me=3 / subme=3 / merange=57 / temporal-mvp / weightp / no-weightb / no-analyze-src-pics / deblock=0:0 / sao / no-sao-non-deblock / rd=4 / early-skip / rskip / no-fast-intra / no-tskip-fast / no-cu-lossless / no-b-intra / no-splitrd-skip / rdpenalty=0 / psy-rd=1.20 / psy-rdoq=0.80 / no-rd-refine / no-lossless / cbqpoffs=0 / crqpoffs=0 / rc=crf / crf=21.5 / qcomp=0.60 / qpstep=4 / stats-write=0 / stats-read=0 / ipratio=1.40 / pbratio=1.30 / aq-mode=1 / aq-strength=1.00 / cutree / zone-count=0 / no-strict-cbr / qg-size=32 / no-rc-grain / qpmax=69 / qpmin=0 / no-const-vbv / sar=0 / overscan=0 / videoformat=5 / range=0 / colorprim=2 / transfer=2 / colormatrix=2 / chromaloc=0 / display-window=0 / max-cll=0,0 / min-luma=0 / max-luma=1023 / log2-max-poc-lsb=8 / vui-timing-info / vui-hrd-info / slices=1 / no-opt-qp-pps / no-opt-ref-list-length-pps / no-multi-pass-opt-rps / scenecut-bias=0.05 / no-opt-cu-delta-qp / no-aq-motion / no-hdr / no-hdr-opt / no-dhdr10-opt / no-idr-recovery-sei / analysis-reuse-level=5 / scale-factor=0 / refine-intra=0 / refine-inter=0 / refine-mv=0 / no-limit-sao / ctu-info=0 / no-lowpass-dct / refine-mv-type=0 / copy-pic=1 / max-ausize-factor=1.0 / no-dynamic-refine / no-single-sei
Default                                  : Yes
Forced                                   : No

Audio
ID                                       : 2
Format                                   : AAC
Format/Info                              : Advanced Audio Codec
Format profile                           : HE-AAC / LC
Codec ID                                 : A_AAC
Duration                                 : 20 min 41 s
Bit rate                                 : 132 kb/s
Channel(s)                               : 6 channels
Channel positions                        : Front: L C R, Side: L R, LFE
Sampling rate                            : 48.0 kHz / 24.0 kHz
Frame rate                               : 23.438 FPS (1024 spf)
Compression mode                         : Lossy
Delay relative to video                  : 31 ms
Stream size                              : 19.9 MiB (4%)
Language                                 : English
Default                                  : No
Forced                                   : No

Subtitle #1
ID                                       : 3
Format                                   : VobSub
Muxing mode                              : zlib
Codec ID                                 : S_VOBSUB
Codec ID/Info                            : Picture based subtitle format used on DVDs
Duration                                 : 20 min 34 s
Bit rate                                 : 16.5 kb/s
Count of elements                        : 406
Stream size                              : 2.44 MiB (1%)
Language                                 : English
Default                                  : No
Forced                                   : No

Subtitle #2
ID                                       : 4
Format                                   : VobSub
Muxing mode                              : zlib
Codec ID                                 : S_VOBSUB
Codec ID/Info                            : Picture based subtitle format used on DVDs
Duration                                 : 20 min 34 s
Bit rate                                 : 14.0 kb/s
Count of elements                        : 385
Stream size                              : 2.06 MiB (0%)
Language                                 : Danish
Default                                  : No
Forced                                   : No

Subtitle #3
ID                                       : 5
Format                                   : VobSub
Muxing mode                              : zlib
Codec ID                                 : S_VOBSUB
Codec ID/Info                            : Picture based subtitle format used on DVDs
Duration                                 : 20 min 34 s
Bit rate                                 : 13.9 kb/s
Count of elements                        : 387
Stream size                              : 2.05 MiB (0%)
Language                                 : Finnish
Default                                  : No
Forced                                   : No

Subtitle #4
ID                                       : 6
Format                                   : VobSub
Muxing mode                              : zlib
Codec ID                                 : S_VOBSUB
Codec ID/Info                            : Picture based subtitle format used on DVDs
Duration                                 : 20 min 34 s
Bit rate                                 : 12.9 kb/s
Count of elements                        : 328
Stream size                              : 1.90 MiB (0%)
Language                                 : French
Default                                  : No
Forced                                   : No

Subtitle #5
ID                                       : 7
Format                                   : VobSub
Muxing mode                              : zlib
Codec ID                                 : S_VOBSUB
Codec ID/Info                            : Picture based subtitle format used on DVDs
Duration                                 : 20 min 34 s
Bit rate                                 : 13.4 kb/s
Count of elements                        : 386
Stream size                              : 1.97 MiB (0%)
Language                                 : Norwegian Bokmal
Default                                  : No
Forced                                   : No

Subtitle #6
ID                                       : 8
Format                                   : VobSub
Muxing mode                              : zlib
Codec ID                                 : S_VOBSUB
Codec ID/Info                            : Picture based subtitle format used on DVDs
Duration                                 : 20 min 34 s
Bit rate                                 : 13.0 kb/s
Count of elements                        : 332
Stream size                              : 1.92 MiB (0%)
Language                                 : Portuguese
Default                                  : No
Forced                                   : No

Subtitle #7
ID                                       : 9
Format                                   : VobSub
Muxing mode                              : zlib
Codec ID                                 : S_VOBSUB
Codec ID/Info                            : Picture based subtitle format used on DVDs
Duration                                 : 20 min 34 s
Bit rate                                 : 14.7 kb/s
Count of elements                        : 388
Stream size                              : 2.16 MiB (0%)
Language                                 : Spanish
Default                                  : No
Forced                                   : No

Subtitle #8
ID                                       : 10
Format                                   : VobSub
Muxing mode                              : zlib
Codec ID                                 : S_VOBSUB
Codec ID/Info                            : Picture based subtitle format used on DVDs
Duration                                 : 20 min 34 s
Bit rate                                 : 13.7 kb/s
Count of elements                        : 333
Stream size                              : 2.02 MiB (0%)
Language                                 : Spanish
Default                                  : No
Forced                                   : No

Subtitle #9
ID                                       : 11
Format                                   : VobSub
Muxing mode                              : zlib
Codec ID                                 : S_VOBSUB
Codec ID/Info                            : Picture based subtitle format used on DVDs
Duration                                 : 20 min 34 s
Bit rate                                 : 13.0 kb/s
Count of elements                        : 382
Stream size                              : 1.91 MiB (0%)
Language                                 : Swedish
Default                                  : No
Forced                                   : No

Menu
00:00:00.000                             : en:Chapter 1
00:00:54.471                             : en:Chapter 2
00:03:17.239                             : en:Chapter 3
00:12:08.978                             : en:Chapter 4
00:19:21.327                             : en:Chapter 5
00:20:14.088                             : en:Chapter 6

Source Information
Release: The.Big.Bang.Theory.S11.1080p.BluRay.REMUX.AVC.DTS-HD.MA.5.1-EPSiLON  (62.2 GB)


UTR wrote:

Note From UTR
We have no issue with individuals posting or re-uploading our torrents on a platform we aren't on. However, if this is something you'd like to do, please do so in a 'as-is' format. We ask that you do not create a new torrent, include all descriptions you see above including the UTR logo, tags, notes and screenshots. If you'd like to become a permanent poster on a website we don't post to, feel free to get in contact with a UniTeam member.

If possible please donate: BTC 1QA5fum5AyXvWzdVCkQzUNvw3Ef15fHRaR


Category:TV > HEVC/x265
Lang:English  English
Total Size:10.73 GB
Info Hash:2e3a4551ad810f5bfa6f3cdb24de7bcf6af6f811
Added By:UTR
Date Added:09-10-2018 13:49:28

Files

File List: 
 File Size
Encoded by JoyBell (UTR).txt2.73 kB
folder.jpg27.85 kB
How to play HEVC (THIS FILE).txt3.42 kB
Ninite K-Lite Codecs Unattended Silent Installer and Updater.website561.00 B
The Big Bang Theory S11E01 The Proposal Proposal (1080p x265 10bit Joy).mkv481 MB
The Big Bang Theory S11E02 The Retraction Reaction (1080p x265 10bit Joy).mkv493 MB
The Big Bang Theory S11E03 The Relaxation Integration (1080p x265 10bit Joy).mkv449 MB
The Big Bang Theory S11E04 The Explosion Implosion (1080p x265 10bit Joy).mkv439 MB
The Big Bang Theory S11E05 The Collaboration Contamination (1080p x265 10bit Joy).mkv409 MB
The Big Bang Theory S11E06 The Proton Regeneration (1080p x265 10bit Joy).mkv461 MB
The Big Bang Theory S11E07 The Geology Methodology (1080p x265 10bit Joy).mkv443 MB
The Big Bang Theory S11E08 The Tesla Recoil (1080p x265 10bit Joy).mkv426 MB
The Big Bang Theory S11E09 The Bitcoin Entanglement (1080p x265 10bit Joy).mkv443 MB
The Big Bang Theory S11E10 The Confidence Erosion (1080p x265 10bit Joy).mkv455 MB
The Big Bang Theory S11E11 The Celebration Reverberation (1080p x265 10bit Joy).mkv420 MB
The Big Bang Theory S11E12 The Matrimonial Metric (1080p x265 10bit Joy).mkv509 MB
The Big Bang Theory S11E13 The Solo Oscillation (1080p x265 10bit Joy).mkv533 MB
The Big Bang Theory S11E14 The Separation Triangulation (1080p x265 10bit Joy).mkv398 MB
The Big Bang Theory S11E15 The Novelization Correlation (1080p x265 10bit Joy).mkv467 MB
The Big Bang Theory S11E16 The Neonatal Nomenclature (1080p x265 10bit Joy).mkv392 MB
The Big Bang Theory S11E17 The Athenaeum Allocation (1080p x265 10bit Joy).mkv430 MB
The Big Bang Theory S11E18 The Gates Excitation (1080p x265 10bit Joy).mkv507 MB
The Big Bang Theory S11E19 The Tenant Disassociation (1080p x265 10bit Joy).mkv469 MB
The Big Bang Theory S11E20 The Reclusive Potential (1080p x265 10bit Joy).mkv547 MB
The Big Bang Theory S11E21 The Comet Polarization (1080p x265 10bit Joy).mkv460 MB
The Big Bang Theory S11E22 The Monetary Insufficiency (1080p x265 10bit Joy).mkv481 MB
The Big Bang Theory S11E23 The.Sibling Realignment (1080p x265 10bit Joy).mkv422 MB
The Big Bang Theory S11E24 The Bow Tie Asymmetry (1080p x265 10bit Joy).mkv454 MB



Loading...
Comments

There are currently no comments. Be the first one to write something !

Disclaimer: None of the files shown here are actually hosted or transmitted by this server. The links are provided solely by this site's users. The site moderation is also a service provided by the site's users. The administrator of this site (ettv.tv) cannot be held responsible for what its users post, or any other actions of its users. You may not use this site to distribute or download any material when you do not have the legal rights to do so. It is your own responsibility to adhere to these terms.

Sitemap