GUARDIANS of the GALAXY: Complete Season 2 S02: 720p Web-DL x264 45 minutes | Watch now! | 08-11-2018 – Naam Iruvar Namaku Iruvar Vijay Tv...
the walking dead High Castle s03e07 etmovies doctor who s11e03 venom porn fgt ant man Lia M NASCAR Blindspot FEAR THE WALKING DEAD evo Greys Anatomy office 2019 WINDOWS 10 ncis the walking dead s09e03 Dtone 2018 ita vikings ethd 1080p 2018 "Alicia Monet" family guy 0 daredevil game of thrones ita formula 1 Lethal Weapon etrg modern family nfl Big bang theory Supergirl s04e02 supergirl the last ship ettv lopez nussa dtone shameless Survivor ddr arrow español wwe empire 2160p SUPERNATURAL hindi ita 2018 last week tonight lucifer season complete shameless s09e07 you walking dead the flash Better Call saul arrow Talking Dead american horror story girlsdoporn The Big Bang Theory 1080p YIFY doctor who incredibles 2 star trek discovery star trek discovery español 
Warning! Do not Download Without a VPN!
Your IP Address is .   Location is
Download and surf securely, stream unlimited and protect your personal data!
We strongly recommend using SpyOFF VPN!
Become Anonymous with SpyOFF
ETTV Recommended TV Shows
Supergirl.S04E02.HDTV.x264-SVA[ettv] torrent
The.Last.Ship.S05E07.WEBRip.x264-TBS[ettv] torrent
The.Walking.Dead.S09E03.HDTV.x264-SVA[ettv] torrent
Charmed.2018.S01E02.WEB.h264-TBS[ettv] torrent

ETTV Recommended Xvid
No.Escape.Room.2018.HDRip.XViD-ETRG torrent
Tales.of.Frankenstein.2018.HDRip.XviD.AC3-EVO torrent
The.Dark.2018.HDRip.XviD.AC3-EVO torrent
Incredibles.2.2018.HDRip.XViD-ETRG torrent

ETTV Recommended HD
Malicious.2018.1080p.WEB-DL.H264.AC3-EVO[EtHD] torrent
The.Night.Come.For.Us.2018.Multi.1080p.NF.WebDL.AVC.DDP.5.1-DTOne torrent
Thunder.Road.2018.1080p.WEB-DL.H264.AC3-EVO[EtHD] torrent
Incredibles.2.2018.1080p.WEB-DL.DD5.1.H264-CMRG[EtHD] torrent

ETTV Recommended UHD
Constantine.City.of.Demons.2018.2160p.BluRay.x265.10bit.HDR.DTS-HD.MA.5.1-SWTYBLZ[EtHD] torrent
Your.Name.2016.2160p.UHD.BluRay.x265-VALiS[EtHD] torrent
Peter.Rabbit.2018.PLDUB.DUAL.2160p.UHD.BluRay.x265-FLAME[EtHD] torrent
Death.Wish.2018 BluRay 2160p DTS MA5 1 x265 10bit-CHD[EtHD] torrent

ETTV Recommended Cam
Bad Times at the El Royale 2018.HDCAM.XViD.AC3-ETRG torrent
Goosebumps 2 Haunted Halloween 2018 HDTS.x264.AC3-ETRG torrent
Halloween 2018.HDCAM.XViD.AC3-ETRG torrent
Night School 2018 HDTS XViD AC3-ETRG torrent

ETTV Recommended Foreign
The.Night.Comes.For.Us.2018.1080p.NF.WEB-DL.DD5.1.H264-CMRG[EtHD] torrent
Rangasthalam (2018) [TELUGU - 720p - WEB HDRip - x264 - DD 5.1 - ESub - 2GB] - MAZE torrent
The Avengers Trilogy (2012-2018) 1080p BluRay x264 Dual Audio [Hindi - English] DD5.1 - ESUB ~ Ranvijay torrent
Naa.Bangaaru.Talli.2013.1080p.NF.WebDL.AVC.DDP.5.1-DTOne torrent

Social


Download Torrent "The Big Bang Theory (2007) Season 2 S02 + Extras (1080p BluRay x265 HEVC 10..."

IMDB Details
Description:

N/A

Genre:

N/A

Download Torrent (Magnet)
Download Torrent (File)
Seeds: 129
Leechers: 154
Completed: 853 
Last Checked: 12-10-2018 12:53:17


Loading...
Details
Title:The Big Bang Theory (2007) Season 2 S02 + Extras (1080p BluRay x265 HEVC 10...
Description:


Note from Encoder:
Includes additional audio tracks and additional content available. Enjoy!



Encode Screenshots (Click for full quality)




Media Information
General
Format                                   : Matroska
Format version                           : Version 4 / Version 2
File size                                : 580 MiB
Duration                                 : 21 min 52 s
Overall bit rate                         : 3 706 kb/s
Encoded date                             : UTC 2018-10-03 11:28:20
Writing application                      : mkvmerge v12.0.0 ('Trust / Lust') 64bit
Writing library                          : libebml v1.3.4 + libmatroska v1.4.5
Cover                                    : Yes
Attachments                              : cover.jpg

Video
ID                                       : 1
Format                                   : HEVC
Format/Info                              : High Efficiency Video Coding
Format profile                           : Main [email protected]@Main
Codec ID                                 : V_MPEGH/ISO/HEVC
Duration                                 : 21 min 51 s
Bit rate                                 : 3 194 kb/s
Width                                    : 1 920 pixels
Height                                   : 1 080 pixels
Display aspect ratio                     : 16:9
Frame rate mode                          : Constant
Frame rate                               : 23.976 (24000/1001) FPS
Color space                              : YUV
Chroma subsampling                       : 4:2:0
Bit depth                                : 10 bits
Bits/(Pixel*Frame)                       : 0.064
Stream size                              : 499 MiB (86%)
Writing library                          : x265 2.8+74-fd517ae68f93:[Windows][MSVC 1900][64 bit] 10bit
Encoding settings                        : cpuid=1111039 / frame-threads=3 / numa-pools=8 / wpp / no-pmode / no-pme / no-psnr / no-ssim / log-level=2 / input-csp=1 / input-res=1920x1080 / interlace=0 / total-frames=31441 / level-idc=0 / high-tier=1 / uhd-bd=0 / ref=5 / no-allow-non-conformance / no-repeat-headers / annexb / no-aud / no-hrd / info / hash=0 / no-temporal-layers / open-gop / min-keyint=23 / keyint=250 / gop-lookahead=0 / bframes=8 / b-adapt=2 / b-pyramid / bframe-bias=0 / rc-lookahead=80 / lookahead-slices=4 / scenecut=40 / radl=0 / no-intra-refresh / ctu=64 / min-cu-size=8 / no-rect / no-amp / max-tu-size=32 / tu-inter-depth=1 / tu-intra-depth=1 / limit-tu=0 / rdoq-level=2 / dynamic-rd=0.00 / no-ssim-rd / signhide / no-tskip / nr-intra=0 / nr-inter=0 / no-constrained-intra / no-strong-intra-smoothing / max-merge=4 / limit-refs=3 / limit-modes / me=3 / subme=5 / merange=57 / temporal-mvp / weightp / weightb / no-analyze-src-pics / deblock=-3:-3 / no-sao / no-sao-non-deblock / rd=4 / no-early-skip / no-rskip / no-fast-intra / no-tskip-fast / no-cu-lossless / b-intra / no-splitrd-skip / rdpenalty=0 / psy-rd=1.60 / psy-rdoq=1.80 / no-rd-refine / no-lossless / cbqpoffs=0 / crqpoffs=0 / rc=crf / crf=21.0 / qcomp=0.60 / qpstep=4 / stats-write=0 / stats-read=0 / ipratio=1.40 / pbratio=1.30 / aq-mode=2 / aq-strength=0.80 / cutree / zone-count=0 / no-strict-cbr / qg-size=32 / no-rc-grain / qpmax=69 / qpmin=0 / no-const-vbv / sar=0 / overscan=0 / videoformat=5 / range=0 / colorprim=2 / transfer=2 / colormatrix=2 / chromaloc=0 / display-window=0 / max-cll=0,0 / min-luma=0 / max-luma=1023 / log2-max-poc-lsb=8 / vui-timing-info / vui-hrd-info / slices=1 / no-opt-qp-pps / no-opt-ref-list-length-pps / no-multi-pass-opt-rps / scenecut-bias=0.05 / no-opt-cu-delta-qp / no-aq-motion / no-hdr / no-hdr-opt / no-dhdr10-opt / no-idr-recovery-sei / analysis-reuse-level=5 / scale-factor=0 / refine-intra=0 / refine-inter=0 / refine-mv=0 / no-limit-sao / ctu-info=0 / no-lowpass-dct / refine-mv-type=0 / copy-pic=1 / max-ausize-factor=1.0 / no-dynamic-refine / no-single-sei
Default                                  : Yes
Forced                                   : No

Audio #1
ID                                       : 2
Format                                   : AAC
Format/Info                              : Advanced Audio Codec
Format profile                           : LC
Codec ID                                 : A_AAC
Duration                                 : 21 min 52 s
Bit rate                                 : 305 kb/s
Channel(s)                               : 6 channels
Channel positions                        : Front: L C R, Side: L R, LFE
Sampling rate                            : 48.0 kHz
Frame rate                               : 46.875 FPS (1024 spf)
Compression mode                         : Lossy
Delay relative to video                  : 20 ms
Stream size                              : 47.7 MiB (8%)
Language                                 : English
Default                                  : Yes
Forced                                   : No

Audio #2
ID                                       : 3
Format                                   : AAC
Format/Info                              : Advanced Audio Codec
Format profile                           : HE-AAC / LC
Codec ID                                 : A_AAC
Duration                                 : 21 min 52 s
Bit rate                                 : 80.0 kb/s
Channel(s)                               : 2 channels
Channel positions                        : Front: L R
Sampling rate                            : 48.0 kHz / 24.0 kHz
Frame rate                               : 23.438 FPS (1024 spf)
Compression mode                         : Lossy
Delay relative to video                  : 40 ms
Stream size                              : 12.5 MiB (2%)
Language                                 : German
Default                                  : No
Forced                                   : No

Audio #3
ID                                       : 4
Format                                   : AAC
Format/Info                              : Advanced Audio Codec
Format profile                           : HE-AAC / LC
Codec ID                                 : A_AAC
Duration                                 : 21 min 52 s
Bit rate                                 : 80.0 kb/s
Channel(s)                               : 2 channels
Channel positions                        : Front: L R
Sampling rate                            : 48.0 kHz / 24.0 kHz
Frame rate                               : 23.438 FPS (1024 spf)
Compression mode                         : Lossy
Delay relative to video                  : 40 ms
Stream size                              : 12.5 MiB (2%)
Language                                 : Spanish
Default                                  : No
Forced                                   : No

Subtitle #1
ID                                       : 5
Format                                   : VobSub
Muxing mode                              : zlib
Codec ID                                 : S_VOBSUB
Codec ID/Info                            : Picture based subtitle format used on DVDs
Duration                                 : 21 min 46 s
Bit rate                                 : 8 872 b/s
Count of elements                        : 326
Stream size                              : 1.38 MiB (0%)
Language                                 : English
Default                                  : No
Forced                                   : No

Subtitle #2
ID                                       : 6
Format                                   : VobSub
Muxing mode                              : zlib
Codec ID                                 : S_VOBSUB
Codec ID/Info                            : Picture based subtitle format used on DVDs
Duration                                 : 21 min 46 s
Bit rate                                 : 8 541 b/s
Count of elements                        : 317
Stream size                              : 1.33 MiB (0%)
Language                                 : French
Default                                  : No
Forced                                   : No

Subtitle #3
ID                                       : 7
Format                                   : VobSub
Muxing mode                              : zlib
Codec ID                                 : S_VOBSUB
Codec ID/Info                            : Picture based subtitle format used on DVDs
Duration                                 : 21 min 46 s
Bit rate                                 : 10.4 kb/s
Count of elements                        : 347
Stream size                              : 1.62 MiB (0%)
Language                                 : German
Default                                  : No
Forced                                   : No

Subtitle #4
ID                                       : 8
Format                                   : VobSub
Muxing mode                              : zlib
Codec ID                                 : S_VOBSUB
Codec ID/Info                            : Picture based subtitle format used on DVDs
Duration                                 : 21 min 46 s
Bit rate                                 : 9 064 b/s
Count of elements                        : 348
Stream size                              : 1.41 MiB (0%)
Language                                 : Spanish
Default                                  : No
Forced                                   : No

Subtitle #5
ID                                       : 9
Format                                   : VobSub
Muxing mode                              : zlib
Codec ID                                 : S_VOBSUB
Codec ID/Info                            : Picture based subtitle format used on DVDs
Duration                                 : 21 min 46 s
Bit rate                                 : 8 362 b/s
Count of elements                        : 317
Stream size                              : 1.30 MiB (0%)
Language                                 : Spanish
Default                                  : No
Forced                                   : No

Menu
00:00:00.000                             : en:Chapter 01
00:04:32.105                             : en:Chapter 02
00:11:46.497                             : en:Chapter 03
00:20:08.582                             : en:Chapter 04
00:21:22.489                             : en:Chapter 05

Source Information
Release : The.Big.Bang.Theory.S02.1080p.BluRay.DTS-HD.MA5.1.H.264-NOGRP (Thanks!)



Note from QxR:
Whilst we are happy for our releases to be re-posted on a platform we aren't on, please do so in an 'as-is' format. We ask that you do not create a new torrent, include all descriptions you see above including the QxR logo, tags, notes and screenshots. If you'd like to become a permanent poster on a website we don't post to, feel free to get in contact with a QxR member.
Category:TV > HEVC/x265
Lang:English  English
Total Size:14.48 GB
Info Hash:a993e7c81277c0e45c92c065e9ee0680a3599fb4
Added By:QxR
Date Added:12-10-2018 12:53:12

Files

File List: 
 File Size
Featurettes/Gag Reel.mkv39 MB
Featurettes/Testing the Infinite Hilarity Hypothesis in Relation to The Big Bang Theory.mkv85 MB
Featurettes/The Big Bang Theory Physicist to the Stars.mkv55 MB
The Big Bang Theory (2007) - S02E01 - The Bad Fish Paradigm (1080p BluRay x265 RCVR).mkv580 MB
The Big Bang Theory (2007) - S02E02 - The Codpiece Topology (1080p BluRay x265 RCVR).mkv659 MB
The Big Bang Theory (2007) - S02E03 - The Barbarian Sublimation (1080p BluRay x265 RCVR).mkv653 MB
The Big Bang Theory (2007) - S02E04 - The Griffin Equivalency (1080p BluRay x265 RCVR).mkv702 MB
The Big Bang Theory (2007) - S02E05 - The Euclid Alternative (1080p BluRay x265 RCVR).mkv652 MB
The Big Bang Theory (2007) - S02E06 - The Cooper-Nowitzki Theorem (1080p BluRay x265 RCVR).mkv611 MB
The Big Bang Theory (2007) - S02E07 - The Panty Piñata Polarization (1080p BluRay x265 RCVR).mkv601 MB
The Big Bang Theory (2007) - S02E08 - The Lizard-Spock Expansion (1080p BluRay x265 RCVR).mkv611 MB
The Big Bang Theory (2007) - S02E09 - The White Asparagus Triangulation (1080p BluRay x265 RCVR).mkv554 MB
The Big Bang Theory (2007) - S02E10 - The Vartabedian Conundrum (1080p BluRay x265 RCVR).mkv615 MB
The Big Bang Theory (2007) - S02E11 - The Bath Item Gift Hypothesis (1080p BluRay x265 RCVR).mkv632 MB
The Big Bang Theory (2007) - S02E12 - The Killer Robot Instability (1080p BluRay x265 RCVR).mkv685 MB
The Big Bang Theory (2007) - S02E13 - The Friendship Algorithm (1080p BluRay x265 RCVR).mkv793 MB
The Big Bang Theory (2007) - S02E14 - The Financial Permeability (1080p BluRay x265 RCVR).mkv617 MB
The Big Bang Theory (2007) - S02E15 - The Maternal Capacitance (1080p BluRay x265 RCVR).mkv602 MB
The Big Bang Theory (2007) - S02E16 - The Cushion Saturation (1080p BluRay x265 RCVR).mkv651 MB
The Big Bang Theory (2007) - S02E17 - The Terminator Decoupling (1080p BluRay x265 RCVR).mkv600 MB
The Big Bang Theory (2007) - S02E18 - The Work Song Nanocluster (1080p BluRay x265 RCVR).mkv685 MB
The Big Bang Theory (2007) - S02E19 - The Dead Hooker Juxtaposition (1080p BluRay x265 RCVR).mkv603 MB
The Big Bang Theory (2007) - S02E20 - The Hofstadter Isotope (1080p BluRay x265 RCVR).mkv670 MB
The Big Bang Theory (2007) - S02E21 - The Vegas Renormalization (1080p BluRay x265 RCVR).mkv659 MB
The Big Bang Theory (2007) - S02E22 - The Classified Materials Turbulence (1080p BluRay x265 RCVR).mkv619 MB
The Big Bang Theory (2007) - S02E23 - The Monopolar Expedition (1080p BluRay x265 RCVR).mkv595 MB



Loading...
Comments

There are currently no comments. Be the first one to write something !

Disclaimer: None of the files shown here are actually hosted or transmitted by this server. The links are provided solely by this site's users. The site moderation is also a service provided by the site's users. The administrator of this site (ettv.tv) cannot be held responsible for what its users post, or any other actions of its users. You may not use this site to distribute or download any material when you do not have the legal rights to do so. It is your own responsibility to adhere to these terms.

Sitemap