Supernatural Saison 14 episode 4 VOSTFR | Beat Bugs S01E05 720p WEB x264-MEMENTO [eztv] | A Leaf of Faith
the walking dead High Castle s03e07 etmovies doctor who s11e03 venom porn fgt ant man Lia M NASCAR Blindspot FEAR THE WALKING DEAD evo Greys Anatomy office 2019 WINDOWS 10 ncis the walking dead s09e03 Dtone 2018 ita vikings ethd 1080p 2018 "Alicia Monet" family guy 0 daredevil game of thrones ita formula 1 Lethal Weapon etrg modern family nfl Big bang theory Supergirl s04e02 supergirl the last ship ettv lopez nussa dtone shameless Survivor ddr arrow español wwe empire 2160p SUPERNATURAL hindi ita 2018 last week tonight lucifer season complete shameless s09e07 you walking dead the flash Better Call saul arrow Talking Dead american horror story girlsdoporn The Big Bang Theory 1080p YIFY doctor who incredibles 2 star trek discovery star trek discovery español 
Warning! Do not Download Without a VPN!
Your IP Address is .   Location is
Download and surf securely, stream unlimited and protect your personal data!
We strongly recommend using SpyOFF VPN!
Become Anonymous with SpyOFF
ETTV Recommended TV Shows
Arrow.S07E02.HDTV.x264-SVA[ettv] torrent
DCs.Legends.of.Tomorrow.S04E01.HDTV.x264-SVA[ettv] torrent
Magnum.P.I.2018.S01E05.HDTV.x264-SVA[ettv] torrent
Manifest.S01E05.HDTV.x264-KILLERS[ettv] torrent

ETTV Recommended Xvid
The.Dark.2018.HDRip.XviD.AC3-EVO torrent
Mile.22.2018.HDRip.XviD.AC3-EVO[EtMovies] torrent
The.Scorpion.King.Book.of.Souls.2018.HDRip.XViD-ETRG torrent
BlacKkKlansman.2018.HDRip.XViD.AC3-ETRG torrent

ETTV Recommended HD
Thunder.Road.2018.1080p.WEB-DL.H264.AC3-EVO[EtHD] torrent
Incredibles.2.2018.1080p.WEB-DL.DD5.1.H264-CMRG[EtHD] torrent
BlacKkKlansman.2018.1080p.WEB-DL.DD5.1.H264-CMRG[EtHD] torrent
Scorpion.King.The.Book.of.Souls.2018.1080p.WEB-DL.H264.AC3-EVO[EtHD] torrent

ETTV Recommended UHD
Constantine.City.of.Demons.2018.2160p.BluRay.x265.10bit.HDR.DTS-HD.MA.5.1-SWTYBLZ[EtHD] torrent
Your.Name.2016.2160p.UHD.BluRay.x265-VALiS[EtHD] torrent
Peter.Rabbit.2018.PLDUB.DUAL.2160p.UHD.BluRay.x265-FLAME[EtHD] torrent
Death.Wish.2018 BluRay 2160p DTS MA5 1 x265 10bit-CHD[EtHD] torrent

ETTV Recommended Cam
Bad Times at the El Royale 2018.HDCAM.XViD.AC3-ETRG torrent
Goosebumps 2 Haunted Halloween 2018 HDTS.x264.AC3-ETRG torrent
Halloween 2018.HDCAM.XViD.AC3-ETRG torrent
Night School 2018 HDTS XViD AC3-ETRG torrent

ETTV Recommended Foreign
The.Night.Comes.For.Us.2018.1080p.NF.WEB-DL.DD5.1.H264-CMRG[EtHD] torrent
Rangasthalam (2018) [TELUGU - 720p - WEB HDRip - x264 - DD 5.1 - ESub - 2GB] - MAZE torrent
The Avengers Trilogy (2012-2018) 1080p BluRay x264 Dual Audio [Hindi - English] DD5.1 - ESUB ~ Ranvijay torrent
Naa.Bangaaru.Talli.2013.1080p.NF.WebDL.AVC.DDP.5.1-DTOne torrent

Social


Download Torrent "The Big Bang Theory (2007) Season 4 S04 + Extras (1080p BluRay x265 HEVC 10..."

IMDB Details
Description:

N/A

Genre:

N/A

Download Torrent (Magnet)
Download Torrent (File)
Seeds: 192
Leechers: 178
Completed: 1,010 
Last Checked: 16-10-2018 15:03:32


Loading...
Details
Title:The Big Bang Theory (2007) Season 4 S04 + Extras (1080p BluRay x265 HEVC 10...
Description:


Note from Encoder:
English, German and Spanish audio included in this season as well as all bonus content. Enjoy!



Encode Screenshots (Click for full quality)





Media Information
General
Format                                   : Matroska
Format version                           : Version 4 / Version 2
File size                                : 669 MiB
Duration                                 : 21 min 29 s
Overall bit rate                         : 4 351 kb/s
Encoded date                             : UTC 2018-10-08 08:23:30
Writing application                      : mkvmerge v12.0.0 ('Trust / Lust') 64bit
Writing library                          : libebml v1.3.4 + libmatroska v1.4.5
Cover                                    : Yes
Attachments                              : cover.jpg

Video
ID                                       : 1
Format                                   : HEVC
Format/Info                              : High Efficiency Video Coding
Format profile                           : Main [email protected]@Main
Codec ID                                 : V_MPEGH/ISO/HEVC
Duration                                 : 21 min 29 s
Bit rate                                 : 3 788 kb/s
Width                                    : 1 920 pixels
Height                                   : 1 080 pixels
Display aspect ratio                     : 16:9
Frame rate mode                          : Constant
Frame rate                               : 23.976 (24000/1001) FPS
Color space                              : YUV
Chroma subsampling                       : 4:2:0
Bit depth                                : 10 bits
Bits/(Pixel*Frame)                       : 0.076
Stream size                              : 582 MiB (87%)
Writing library                          : x265 2.9+1-169e76b6bbcc:[Windows][MSVC 1900][64 bit] 10bit
Encoding settings                        : cpuid=1111039 / frame-threads=3 / numa-pools=8 / wpp / no-pmode / no-pme / no-psnr / no-ssim / log-level=2 / input-csp=1 / input-res=1920x1080 / interlace=0 / total-frames=30913 / level-idc=0 / high-tier=1 / uhd-bd=0 / ref=5 / no-allow-non-conformance / no-repeat-headers / annexb / no-aud / no-hrd / info / hash=0 / no-temporal-layers / open-gop / min-keyint=23 / keyint=250 / gop-lookahead=0 / bframes=8 / b-adapt=2 / b-pyramid / bframe-bias=0 / rc-lookahead=80 / lookahead-slices=4 / scenecut=40 / radl=0 / no-intra-refresh / ctu=64 / min-cu-size=8 / no-rect / no-amp / max-tu-size=32 / tu-inter-depth=1 / tu-intra-depth=1 / limit-tu=0 / rdoq-level=2 / dynamic-rd=0.00 / no-ssim-rd / signhide / no-tskip / nr-intra=0 / nr-inter=0 / no-constrained-intra / no-strong-intra-smoothing / max-merge=4 / limit-refs=3 / limit-modes / me=3 / subme=5 / merange=57 / temporal-mvp / weightp / weightb / no-analyze-src-pics / deblock=-3:-3 / no-sao / no-sao-non-deblock / rd=4 / no-early-skip / no-rskip / no-fast-intra / no-tskip-fast / no-cu-lossless / b-intra / no-splitrd-skip / rdpenalty=0 / psy-rd=1.50 / psy-rdoq=1.80 / no-rd-refine / no-lossless / cbqpoffs=0 / crqpoffs=0 / rc=crf / crf=21.0 / qcomp=0.60 / qpstep=4 / stats-write=0 / stats-read=0 / ipratio=1.40 / pbratio=1.30 / aq-mode=3 / aq-strength=0.90 / cutree / zone-count=0 / no-strict-cbr / qg-size=32 / no-rc-grain / qpmax=69 / qpmin=0 / no-const-vbv / sar=0 / overscan=0 / videoformat=5 / range=0 / colorprim=2 / transfer=2 / colormatrix=2 / chromaloc=0 / display-window=0 / max-cll=0,0 / min-luma=0 / max-luma=1023 / log2-max-poc-lsb=8 / vui-timing-info / vui-hrd-info / slices=1 / no-opt-qp-pps / no-opt-ref-list-length-pps / no-multi-pass-opt-rps / scenecut-bias=0.05 / no-opt-cu-delta-qp / no-aq-motion / no-hdr / no-hdr-opt / no-dhdr10-opt / no-idr-recovery-sei / analysis-reuse-level=5 / scale-factor=0 / refine-intra=0 / refine-inter=0 / refine-mv=0 / no-limit-sao / ctu-info=0 / no-lowpass-dct / refine-mv-type=0 / copy-pic=1 / max-ausize-factor=1.0 / no-dynamic-refine / no-single-sei
Default                                  : Yes
Forced                                   : No

Audio #1
ID                                       : 2
Format                                   : AAC
Format/Info                              : Advanced Audio Codec
Format profile                           : LC
Codec ID                                 : A_AAC
Duration                                 : 21 min 29 s
Bit rate                                 : 371 kb/s
Channel(s)                               : 6 channels
Channel positions                        : Front: L C R, Side: L R, LFE
Sampling rate                            : 48.0 kHz
Frame rate                               : 46.875 FPS (1024 spf)
Compression mode                         : Lossy
Delay relative to video                  : 20 ms
Stream size                              : 57.0 MiB (9%)
Language                                 : English
Default                                  : Yes
Forced                                   : No

Audio #2
ID                                       : 3
Format                                   : AAC
Format/Info                              : Advanced Audio Codec
Format profile                           : HE-AAC / LC
Codec ID                                 : A_AAC
Duration                                 : 21 min 29 s
Bit rate                                 : 80.0 kb/s
Channel(s)                               : 2 channels
Channel positions                        : Front: L R
Sampling rate                            : 48.0 kHz / 24.0 kHz
Frame rate                               : 23.438 FPS (1024 spf)
Compression mode                         : Lossy
Delay relative to video                  : 40 ms
Stream size                              : 12.3 MiB (2%)
Language                                 : German
Default                                  : No
Forced                                   : No

Audio #3
ID                                       : 4
Format                                   : AAC
Format/Info                              : Advanced Audio Codec
Format profile                           : HE-AAC / LC
Codec ID                                 : A_AAC
Duration                                 : 21 min 29 s
Bit rate                                 : 80.0 kb/s
Channel(s)                               : 2 channels
Channel positions                        : Front: L R
Sampling rate                            : 48.0 kHz / 24.0 kHz
Frame rate                               : 23.438 FPS (1024 spf)
Compression mode                         : Lossy
Delay relative to video                  : 40 ms
Stream size                              : 12.3 MiB (2%)
Language                                 : Spanish
Default                                  : No
Forced                                   : No

Subtitle #1
ID                                       : 5
Format                                   : VobSub
Muxing mode                              : zlib
Codec ID                                 : S_VOBSUB
Codec ID/Info                            : Picture based subtitle format used on DVDs
Duration                                 : 21 min 21 s
Bit rate                                 : 8 960 b/s
Count of elements                        : 346
Stream size                              : 1.37 MiB (0%)
Language                                 : English
Default                                  : No
Forced                                   : No

Subtitle #2
ID                                       : 6
Format                                   : VobSub
Muxing mode                              : zlib
Codec ID                                 : S_VOBSUB
Codec ID/Info                            : Picture based subtitle format used on DVDs
Duration                                 : 21 min 21 s
Bit rate                                 : 10.4 kb/s
Count of elements                        : 363
Stream size                              : 1.59 MiB (0%)
Language                                 : German
Default                                  : No
Forced                                   : No

Subtitle #3
ID                                       : 7
Format                                   : VobSub
Muxing mode                              : zlib
Codec ID                                 : S_VOBSUB
Codec ID/Info                            : Picture based subtitle format used on DVDs
Duration                                 : 21 min 21 s
Bit rate                                 : 8 891 b/s
Count of elements                        : 337
Stream size                              : 1.36 MiB (0%)
Language                                 : Spanish
Default                                  : No
Forced                                   : No

Menu
00:00:00.000                             : en:Chapter 01
00:02:22.642                             : en:Chapter 02
00:02:45.206                             : en:Chapter 03
00:10:45.353                             : en:Chapter 04
00:21:03.220                             : en:Chapter 05

Source Information
Release : The Big Bang Theory S04 1080p BluRay AVC DTS-HD MA 5.1 - HDBEE (Thanks!)



Note from QxR:
Whilst we are happy for our releases to be re-posted on a platform we aren't on, please do so in an 'as-is' format. We ask that you do not create a new torrent, include all descriptions you see above including the QxR logo, tags, notes and screenshots. If you'd like to become a permanent poster on a website we don't post to, feel free to get in contact with a QxR member.
Category:TV > HEVC/x265
Lang:English  English
Total Size:19.32 GB
Info Hash:cd1173e73b634b6209fde8c47e13574f9b8f0b9f
Added By:QxR
Date Added:16-10-2018 15:03:26

Files

File List: 
 File Size
Featurettes/Barenaked Ladies on The Big Bang Theory.mkv102 MB
Featurettes/Gag Reel.mkv178 MB
Featurettes/The Big Bang Theory Live.mkv1.10 GB
Featurettes/The Big Bang Theory Theme Song.mkv67 MB
Featurettes/The Big Bang's Theory of Relativity - Actor on Actor/Jim and Mayim.mkv249 MB
Featurettes/The Big Bang's Theory of Relativity - Actor on Actor/Kaley and Johnny.mkv203 MB
Featurettes/The Big Bang's Theory of Relativity - Actor on Actor/Simon Melissa and Kunal.mkv302 MB
The Big Bang Theory (2007) - S04E01 - The Robotic Manipulation (1080p BluRay x265 RCVR).mkv669 MB
The Big Bang Theory (2007) - S04E02 - The Cruciferous Vegetable Amplification (1080p BluRay x265 RCVR).mkv769 MB
The Big Bang Theory (2007) - S04E03 - The Zazzy Substitution (1080p BluRay x265 RCVR).mkv828 MB
The Big Bang Theory (2007) - S04E04 - The Hot Troll Deviation (1080p BluRay x265 RCVR).mkv853 MB
The Big Bang Theory (2007) - S04E05 - The Desperation Emanation (1080p BluRay x265 RCVR).mkv753 MB
The Big Bang Theory (2007) - S04E06 - The Irish Pub Formulation (1080p BluRay x265 RCVR).mkv732 MB
The Big Bang Theory (2007) - S04E07 - The Apology Insufficiency (1080p BluRay x265 RCVR).mkv742 MB
The Big Bang Theory (2007) - S04E08 - The 21-Second Excitation (1080p BluRay x265 RCVR).mkv704 MB
The Big Bang Theory (2007) - S04E09 - The Boyfriend Complexity (1080p BluRay x265 RCVR).mkv770 MB
The Big Bang Theory (2007) - S04E10 - The Alien Parasite Hypothesis (1080p BluRay x265 RCVR).mkv626 MB
The Big Bang Theory (2007) - S04E11 - The Justice League Recombination (1080p BluRay x265 RCVR).mkv809 MB
The Big Bang Theory (2007) - S04E12 - The Bus Pants Utilization (1080p BluRay x265 RCVR).mkv731 MB
The Big Bang Theory (2007) - S04E13 - The Love Car Displacement (1080p BluRay x265 RCVR).mkv700 MB
The Big Bang Theory (2007) - S04E14 - The Thespian Catalyst (1080p BluRay x265 RCVR).mkv643 MB
The Big Bang Theory (2007) - S04E15 - The Benefactor Factor (1080p BluRay x265 RCVR).mkv593 MB
The Big Bang Theory (2007) - S04E16 - The Cohabitation Formulation (1080p BluRay x265 RCVR).mkv700 MB
The Big Bang Theory (2007) - S04E17 - The Toast Derivation (1080p BluRay x265 RCVR).mkv799 MB
The Big Bang Theory (2007) - S04E18 - The Prestidigitation Approximation (1080p BluRay x265 RCVR).mkv706 MB
The Big Bang Theory (2007) - S04E19 - The Zarnecki Incursion (1080p BluRay x265 RCVR).mkv635 MB
The Big Bang Theory (2007) - S04E20 - The Herb Garden Germination (1080p BluRay x265 RCVR).mkv751 MB
The Big Bang Theory (2007) - S04E21 - The Agreement Dissection (1080p BluRay x265 RCVR).mkv762 MB
The Big Bang Theory (2007) - S04E22 - The Wildebeest Implementation (1080p BluRay x265 RCVR).mkv820 MB
The Big Bang Theory (2007) - S04E23 - The Engagement Reaction (1080p BluRay x265 RCVR).mkv711 MB
The Big Bang Theory (2007) - S04E24 - The Roommate Transmogrification (1080p BluRay x265 RCVR).mkv746 MB



Loading...
Comments

There are currently no comments. Be the first one to write something !

Disclaimer: None of the files shown here are actually hosted or transmitted by this server. The links are provided solely by this site's users. The site moderation is also a service provided by the site's users. The administrator of this site (ettv.tv) cannot be held responsible for what its users post, or any other actions of its users. You may not use this site to distribute or download any material when you do not have the legal rights to do so. It is your own responsibility to adhere to these terms.

Sitemap