Eps5 Fresh Off the Boat - Season 5 (2018) | Download | Frasier (0)
0 BlacKkKlansman Big Bang Theory the big bang theory big bang theory español ddr lethal weapon Supernatural ıt 2017 blue bloods etrg Incredibles 2 Shameless "man ray" Castlevania s02e04 ita 2018 blindspot a discovery of witches s01e07 WWE The Good Doctor evo titans s01e03 alpha Alpha 2018 titans south park プロレス激活字シリー discovery of witches great british bake off s09e09 1080p YIFY dtone macgyver blindspot s04e03 Supergirl discovery of witches S01E07 Chilling Adventures of Sabrina Ncis venom ettv 9-1-1.S01 Castlevania s02e01 DTONE a discovery of witches maneskin game of thrones ethd Survivor 2018 movies formula 1 2160p star trek discovery The Walking Dead etmovies fgt The Flash the americans arrow doctor who porn empire High Castle s03e07 hawaii 2018 ita star trek discovery español mr robot en español It hindi supernatural s14e03 The Big Bang Theory s12e06 Young Sheldon S02E06 
Warning! Do not Download Without a VPN!
Your IP Address is .   Location is
Download and surf securely, stream unlimited and protect your personal data!
We strongly recommend using SpyOFF VPN!
Become Anonymous with SpyOFF
ETTV Recommended TV Shows
A.Discovery.Of.Witches.S01E07.HDTV.x264-GARBAGE[ettv] torrent
Ghost.Adventures.S16E13.Cape.Disappointment.iNTERNAL.720p.HDTV.x264-DHD[ettv] torrent
UFC Fight Night 138 Volkan vs Smith HDTV x264-Ebi [TJET] torrent
Kidding.S01E08.Philliam.720p.AMZN.WEB-DL.DDP5.1.H.264-NTb[ettv] torrent

ETTV Recommended Xvid
A-X-L.2018.HDRip.XviD.AC3-EVO[EtMovies] torrent
Nun.2017.HDRip.XviD.AC3-EVO torrent
Our.House.2018.BRRip.XViD-ETRG torrent
Charming.2018.BDRip.XviD.AC3-EVO torrent

ETTV Recommended HD
Down.a.Dark.Hall.2018.1080p.Bluray.x264.DTS-HDMA.5.1-DTOne torrent
Slender.Man.2018Multi.1080p.Bluray.x264.DTS-HDMA.5.1-DTOne torrent
Reprisal.2018.1080p.Bluray.x264.DTS-HDMA.5.1-DTOne torrent
Warning.Shot.2018.1080p.Bluray.x264.DTS-HDMA.5.1-DTOne torrent

ETTV Recommended UHD
Twilight.2008.Multi.UHD.2160p.Bluray.x265.HEVC.HDR.DD.5.1-DTOne torrent
Mamma.Mia.Here.We.Go.Again.2018.Multi.UHD.2160p.Bluray.x265.HDR.DDP.7.1-DTOne torrent
Only.The.Brave.2017.UHD.2160p.Bluray.x265.HDR.DD.5.1-DTOne torrent
The.Matrix.Reloaded.2003.Multi.UHD.2160p.Bluray.Remux.HEVC.HDR.Atmos.7.1-DTOne torrent

ETTV Recommended Cam
Goosebumps 2 Haunted Halloween 2018 HDTS.x264.AC3-ETRG torrent
Halloween 2018.HDCAM.XViD.AC3-ETRG torrent
Night School 2018 HDTS XViD AC3-ETRG torrent
King of Thieves 2018.HDTS.x264.AC3-ETRG torrent

ETTV Recommended Foreign
Redbad.2018.Multi.1080p.Bluray.x264.DTS.5.1-DTOne torrent
Baar.Baar.Dekho.2018.Complete.1080p.Ger.Bluray.DD.5.1-DTOne torrent
Hotel Transylvania 3 (2018) 720p BluRay x264 Dual Audio [Hindi DD5.1 - English DD2.0] - ESUBS ~ Exclusice By Ranvijay torrent
Saamy² (2018) [TAMIL - 1080p - WEB HDRip - x264 - DD 5.1 - ESub - 2GB] - MAZE torrent

Social


Download Torrent "The Big Bang Theory (2007) Season 3 S03 + Extras (1080p BluRay x265 HEVC 10..."

IMDB Details
Description:

N/A

Genre:

N/A

Download Torrent (Magnet)
Download Torrent (File)
Seeds: 265
Leechers: 177
Completed: 1,120 
Last Checked: 16-10-2018 15:06:51


Loading...
Details
Title:The Big Bang Theory (2007) Season 3 S03 + Extras (1080p BluRay x265 HEVC 10...
Description:


Note from Encoder:
Includes English, German and Spanish audio and all extra goodies.



Encode Screenshots (Click for full quality)





Media Information
General
Format                                   : Matroska
Format version                           : Version 4 / Version 2
File size                                : 671 MiB
Duration                                 : 21 min 35 s
Overall bit rate                         : 4 348 kb/s
Encoded date                             : UTC 2018-10-08 04:51:17
Writing application                      : mkvmerge v20.0.0 ('I Am The Sun') 64-bit
Writing library                          : libebml v1.3.5 + libmatroska v1.4.8
Cover                                    : Yes
Attachments                              : cover.jpg
Writing frontend                         : StaxRip v1.7.0.6

Video
ID                                       : 1
Format                                   : HEVC
Format/Info                              : High Efficiency Video Coding
Format profile                           : Main [email protected]@Main
Codec ID                                 : V_MPEGH/ISO/HEVC
Duration                                 : 21 min 35 s
Bit rate                                 : 3 878 kb/s
Width                                    : 1 920 pixels
Height                                   : 1 080 pixels
Display aspect ratio                     : 16:9
Frame rate mode                          : Constant
Frame rate                               : 23.976 (24000/1001) FPS
Color space                              : YUV
Chroma subsampling                       : 4:2:0
Bit depth                                : 10 bits
Bits/(Pixel*Frame)                       : 0.078
Stream size                              : 599 MiB (89%)
Writing library                          : x265 2.9+1-169e76b6bbcc:[Windows][MSVC 1900][64 bit] 10bit
Encoding settings                        : cpuid=1111039 / frame-threads=3 / numa-pools=8 / wpp / no-pmode / no-pme / no-psnr / no-ssim / log-level=2 / input-csp=1 / input-res=1920x1080 / interlace=0 / total-frames=31056 / level-idc=0 / high-tier=1 / uhd-bd=0 / ref=5 / no-allow-non-conformance / no-repeat-headers / annexb / no-aud / no-hrd / info / hash=0 / no-temporal-layers / open-gop / min-keyint=23 / keyint=250 / gop-lookahead=0 / bframes=8 / b-adapt=2 / b-pyramid / bframe-bias=0 / rc-lookahead=80 / lookahead-slices=4 / scenecut=40 / radl=0 / no-intra-refresh / ctu=64 / min-cu-size=8 / no-rect / no-amp / max-tu-size=32 / tu-inter-depth=1 / tu-intra-depth=1 / limit-tu=0 / rdoq-level=2 / dynamic-rd=0.00 / no-ssim-rd / signhide / no-tskip / nr-intra=0 / nr-inter=0 / no-constrained-intra / no-strong-intra-smoothing / max-merge=4 / limit-refs=3 / limit-modes / me=3 / subme=5 / merange=57 / temporal-mvp / weightp / weightb / no-analyze-src-pics / deblock=-3:-3 / no-sao / no-sao-non-deblock / rd=4 / no-early-skip / no-rskip / no-fast-intra / no-tskip-fast / no-cu-lossless / b-intra / no-splitrd-skip / rdpenalty=0 / psy-rd=1.50 / psy-rdoq=1.80 / no-rd-refine / no-lossless / cbqpoffs=0 / crqpoffs=0 / rc=crf / crf=21.0 / qcomp=0.60 / qpstep=4 / stats-write=0 / stats-read=0 / ipratio=1.40 / pbratio=1.30 / aq-mode=2 / aq-strength=0.90 / cutree / zone-count=0 / no-strict-cbr / qg-size=32 / no-rc-grain / qpmax=69 / qpmin=0 / no-const-vbv / sar=0 / overscan=0 / videoformat=5 / range=0 / colorprim=2 / transfer=2 / colormatrix=2 / chromaloc=0 / display-window=0 / max-cll=0,0 / min-luma=0 / max-luma=1023 / log2-max-poc-lsb=8 / vui-timing-info / vui-hrd-info / slices=1 / no-opt-qp-pps / no-opt-ref-list-length-pps / no-multi-pass-opt-rps / scenecut-bias=0.05 / no-opt-cu-delta-qp / no-aq-motion / no-hdr / no-hdr-opt / no-dhdr10-opt / no-idr-recovery-sei / analysis-reuse-level=5 / scale-factor=0 / refine-intra=0 / refine-inter=0 / refine-mv=0 / no-limit-sao / ctu-info=0 / no-lowpass-dct / refine-mv-type=0 / copy-pic=1 / max-ausize-factor=1.0 / no-dynamic-refine / no-single-sei
Default                                  : Yes
Forced                                   : No

Audio #1
ID                                       : 2
Format                                   : AAC
Format/Info                              : Advanced Audio Codec
Format profile                           : LC
Codec ID                                 : A_AAC
Duration                                 : 21 min 35 s
Bit rate                                 : 278 kb/s
Channel(s)                               : 6 channels
Channel positions                        : Front: L C R, Side: L R, LFE
Sampling rate                            : 48.0 kHz
Frame rate                               : 46.875 FPS (1024 spf)
Compression mode                         : Lossy
Delay relative to video                  : 20 ms
Stream size                              : 42.9 MiB (6%)
Language                                 : English
Default                                  : No
Forced                                   : No

Audio #2
ID                                       : 3
Format                                   : AAC
Format/Info                              : Advanced Audio Codec
Format profile                           : HE-AAC / LC
Codec ID                                 : A_AAC
Duration                                 : 21 min 35 s
Bit rate                                 : 80.0 kb/s
Channel(s)                               : 2 channels
Channel positions                        : Front: L R
Sampling rate                            : 48.0 kHz / 24.0 kHz
Frame rate                               : 23.438 FPS (1024 spf)
Compression mode                         : Lossy
Delay relative to video                  : 40 ms
Stream size                              : 12.4 MiB (2%)
Language                                 : German
Default                                  : No
Forced                                   : No

Audio #3
ID                                       : 4
Format                                   : AAC
Format/Info                              : Advanced Audio Codec
Format profile                           : HE-AAC / LC
Codec ID                                 : A_AAC
Duration                                 : 21 min 35 s
Bit rate                                 : 80.0 kb/s
Channel(s)                               : 2 channels
Channel positions                        : Front: L R
Sampling rate                            : 48.0 kHz / 24.0 kHz
Frame rate                               : 23.438 FPS (1024 spf)
Compression mode                         : Lossy
Delay relative to video                  : 40 ms
Stream size                              : 12.4 MiB (2%)
Language                                 : Spanish
Default                                  : No
Forced                                   : No

Subtitle #1
ID                                       : 5
Format                                   : VobSub
Muxing mode                              : zlib
Codec ID                                 : S_VOBSUB
Codec ID/Info                            : Picture based subtitle format used on DVDs
Duration                                 : 21 min 31 s
Bit rate                                 : 15.3 kb/s
Count of elements                        : 342
Stream size                              : 2.36 MiB (0%)
Language                                 : English
Default                                  : No
Forced                                   : No

Subtitle #2
ID                                       : 6
Format                                   : VobSub
Muxing mode                              : zlib
Codec ID                                 : S_VOBSUB
Codec ID/Info                            : Picture based subtitle format used on DVDs
Duration                                 : 21 min 31 s
Bit rate                                 : 18.1 kb/s
Count of elements                        : 344
Stream size                              : 2.79 MiB (0%)
Language                                 : German
Default                                  : No
Forced                                   : No

Subtitle #3
ID                                       : 7
Format                                   : VobSub
Muxing mode                              : zlib
Codec ID                                 : S_VOBSUB
Codec ID/Info                            : Picture based subtitle format used on DVDs
Duration                                 : 21 min 31 s
Bit rate                                 : 14.6 kb/s
Count of elements                        : 332
Stream size                              : 2.26 MiB (0%)
Language                                 : Spanish
Default                                  : No
Forced                                   : No

Menu
00:00:00.000                             : en:Chapter 01
00:02:41.244                             : en:Chapter 02
00:13:04.241                             : en:Chapter 03
00:20:25.891                             : en:Chapter 04
00:21:08.600                             : en:Chapter 05

Source Information
Release : The.Big.Bang.Theory.S03.1080p.BluRay.DD5.1.VC-1-NOGRP (Thanks!)



Note from QxR:
Whilst we are happy for our releases to be re-posted on a platform we aren't on, please do so in an 'as-is' format. We ask that you do not create a new torrent, include all descriptions you see above including the QxR logo, tags, notes and screenshots. If you'd like to become a permanent poster on a website we don't post to, feel free to get in contact with a QxR member.
Category:TV > HEVC/x265
Lang:English  English
Total Size:13.01 GB
Info Hash:57a9ee1c649c591949f2735f16b9f2507dca6c37
Added By:QxR
Date Added:16-10-2018 15:06:46

Files

File List: 
 File Size
Featurettes/Gag Reel.mkv97 MB
Featurettes/Set Tour with Simon and Kunal.mkv214 MB
Featurettes/Take-out With the Cast.mkv303 MB
The Big Bang Theory (2007) - S03E01 - The Electric Can Opener Fluctuation (1080p BluRay x265 RCVR).mkv671 MB
The Big Bang Theory (2007) - S03E02 - The Jiminy Conjecture (1080p BluRay x265 RCVR).mkv721 MB
The Big Bang Theory (2007) - S03E03 - The Gothowitz Deviation (1080p BluRay x265 RCVR).mkv591 MB
The Big Bang Theory (2007) - S03E04 - The Pirate Solution (1080p BluRay x265 RCVR).mkv517 MB
The Big Bang Theory (2007) - S03E05 - The Creepy Candy Coating Corollary (1080p BluRay x265 RCVR).mkv486 MB
The Big Bang Theory (2007) - S03E06 - The Cornhusker Vortex (1080p BluRay x265 RCVR).mkv585 MB
The Big Bang Theory (2007) - S03E07 - The Guitarist Amplification (1080p BluRay x265 RCVR).mkv566 MB
The Big Bang Theory (2007) - S03E08 - The Adhesive Duck Deficiency (1080p BluRay x265 RCVR).mkv416 MB
The Big Bang Theory (2007) - S03E09 - The Vengeance Formulation (1080p BluRay x265 RCVR).mkv440 MB
The Big Bang Theory (2007) - S03E10 - The Gorilla Experiment (1080p BluRay x265 RCVR).mkv602 MB
The Big Bang Theory (2007) - S03E11 - The Maternal Congruence (1080p BluRay x265 RCVR).mkv531 MB
The Big Bang Theory (2007) - S03E12 - The Psychic Vortex (1080p BluRay x265 RCVR).mkv518 MB
The Big Bang Theory (2007) - S03E13 - The Bozeman Reaction (1080p BluRay x265 RCVR).mkv533 MB
The Big Bang Theory (2007) - S03E14 - The Einstein Approximation (1080p BluRay x265 RCVR).mkv539 MB
The Big Bang Theory (2007) - S03E15 - The Large Hadron Collision (1080p BluRay x265 RCVR).mkv565 MB
The Big Bang Theory (2007) - S03E16 - The Excelsior Acquisition (1080p BluRay x265 RCVR).mkv575 MB
The Big Bang Theory (2007) - S03E17 - The Precious Fragmentation (1080p BluRay x265 RCVR).mkv576 MB
The Big Bang Theory (2007) - S03E18 - The Pants Alternative (1080p BluRay x265 RCVR).mkv581 MB
The Big Bang Theory (2007) - S03E19 - The Wheaton Recurrence (1080p BluRay x265 RCVR).mkv647 MB
The Big Bang Theory (2007) - S03E20 - The Spaghetti Catalyst (1080p BluRay x265 RCVR).mkv488 MB
The Big Bang Theory (2007) - S03E21 - The Plimpton Stimulation (1080p BluRay x265 RCVR).mkv591 MB
The Big Bang Theory (2007) - S03E22 - The Staircase Implementation (1080p BluRay x265 RCVR).mkv458 MB
The Big Bang Theory (2007) - S03E23 - The Lunar Excitation (1080p BluRay x265 RCVR).mkv509 MB



Loading...
Comments

There are currently no comments. Be the first one to write something !

Disclaimer: None of the files shown here are actually hosted or transmitted by this server. The links are provided solely by this site's users. The site moderation is also a service provided by the site's users. The administrator of this site (ettv.tv) cannot be held responsible for what its users post, or any other actions of its users. You may not use this site to distribute or download any material when you do not have the legal rights to do so. It is your own responsibility to adhere to these terms.

Sitemap