Emulator | Aktuelle Literatur | 89. Shakka Man Down Feat Alunageorge mp3
2160p arrow 2018 movies ita game of thrones house of cards titans s01e04 Supernatural Venom Incredibles 2 Outlander big bang theory español ddr ufc 230 UFC 2018 ITA ncis The Predator alpha Evo 0 the big bang theory s12e07 Empire ettv fabbriciani arrow español survivor Star Trek Discovery The Walking dead damerini Greys Anatomy ethd Doctor Who Supergirl haberkamp ita 2018 star trek discovery español dtone van helsing in mo yang WWE champian fulton It the flash titans seal team vikings blindspot coral egan shameless etrg etmovies venom ita evo office 2019 fgt Lucifer oceans eleven Big Bang Theory NFL Dtone great british bake off s09e10 ray donovan the nun The Equalizer 2 modern family Gotham A Discovery of Witches Outlander S04E01 hindi doctor who s11e05 the big bang theory 
Warning! Do not Download Without a VPN!
Your IP Address is .   Location is
Download and surf securely, stream unlimited and protect your personal data!
We strongly recommend using SpyOFF VPN!
Become Anonymous with SpyOFF
ETTV Recommended TV Shows
UFC 230 Cormier vs Lewis HDTV x264-Star [TJET] torrent
Ray.Donovan.S06E02.WEBRip.x264-PBS[ettv] torrent
Saturday.Night.Live.S44E04.Jonah.Hill.and.Maggie.Rogers.HDTV.x264-CRiMSON[ettv] torrent
Outlander.S04E01.WEB.H264-MEMENTO[ettv] torrent

ETTV Recommended Xvid
The.Meg.2018.BDRip.XviD.AC3-EVO[EtMovies] torrent
The.First.Date.2018.HDRip.XviD.AC3-EVO[EtMovies] torrent
BlacKkKlansman.2018.BRRip.XviD.AC3-EVO[EtMovies] torrent
The Hate U Give.2018.HC.HDRip.XviD.AC3-EVO[EtMovies] torrent

ETTV Recommended HD
The Marine 6.Close Quarters.720p.WEB-DL.H264.AC3-EVO[EtHD] torrent
The Hate U Give.2018.1080p.HC.HDRip.X264.AC3-EVO[EtHD] torrent
Generational.Sins.2017.1080p.AMZN.WEB-DL.DDP5.1.H.264-NTb[EtHD] torrent
Robin.Hood.The.Rebellion.2018.1080p.WEB-DL.DD5.1.H264-CMRG[EtHD] torrent

ETTV Recommended UHD
The.Matrix.Revolutions.2003.Multi.mUHD.2160p.x265.HDR.DD.5.1-DTOne torrent
The.Fog.1980.Multi.UHD.2160p.Bluray.x265.HDR.TS.5.1-DTOne torrent
They.Live.1988.Multi.UHD.2160p.Bluray.x265.HDR.DTS.5.1-DTOne torrent
Blade Runner 2049 (2017) 4K UHD BluRay x264 DTS Alien4 torrent

ETTV Recommended Cam
Hunter Killer 2018 HDCAM.XViD.AC3-ETRG torrent
Replicas 2018.HDCAM.x264.AC3-ETRG torrent
Bohemian Rhapsody 2018 HDCAM.XViD.AC3-ETRG torrent
The Nutcracker and the Four Realms 2018 HDCAM x264 AC3-ETRG torrent

ETTV Recommended Foreign
Raatchasan (2018) 720p x265 AAC 5.1 - DTOne torrent
Dans la brume 2018 1080p BluRay DD5.1 x264-SPEED[EtHD] torrent
Sleepy Hollow (1999) 720p BluRay x264 Dual Audio [Hindi DD5.1 - English DD5.1] - ESUB ~ Ranvijay torrent
5 Weddings 2018 PreDvd Hindi 720p x264 AAC - mkvCinemas torrent

Social


Download Torrent "The Big Bang Theory (2007) Season 8 S08 + Extras (1080p BluRay x265 HEVC 10..."

IMDB Details
Description:

N/A

Genre:

N/A

Download Torrent (Magnet)
Download Torrent (File)
Seeds: 309
Leechers: 255
Completed: 1,791 
Last Checked: 01-11-2018 22:12:38


Loading...
Details
Title:The Big Bang Theory (2007) Season 8 S08 + Extras (1080p BluRay x265 HEVC 10...
Description:


http://www.imdb.com/title/tt0898266/


Note from Encoder:
Same as before, includes English, German and Portuguese audio tracks with all available bonus content.



Encode Screenshots (Click for full quality)





Media Information
General
Format                                   : Matroska
Format version                           : Version 4 / Version 2
File size                                : 675 MiB
Duration                                 : 21 min 15 s
Overall bit rate                         : 4 437 kb/s
Encoded date                             : UTC 2018-10-18 16:02:09
Writing application                      : mkvmerge v20.0.0 ('I Am The Sun') 64-bit
Writing library                          : libebml v1.3.5 + libmatroska v1.4.8
Cover                                    : Yes
Attachments                              : cover.jpg
Writing frontend                         : StaxRip v1.7.0.6

Video
ID                                       : 1
Format                                   : HEVC
Format/Info                              : High Efficiency Video Coding
Format profile                           : Main [email protected]@Main
Codec ID                                 : V_MPEGH/ISO/HEVC
Duration                                 : 21 min 13 s
Bit rate                                 : 3 847 kb/s
Width                                    : 1 920 pixels
Height                                   : 1 080 pixels
Display aspect ratio                     : 16:9
Frame rate mode                          : Constant
Frame rate                               : 23.976 (24000/1001) FPS
Color space                              : YUV
Chroma subsampling                       : 4:2:0
Bit depth                                : 10 bits
Bits/(Pixel*Frame)                       : 0.077
Stream size                              : 584 MiB (87%)
Writing library                          : x265 2.9+1-169e76b6bbcc:[Windows][MSVC 1900][64 bit] 10bit
Encoding settings                        : cpuid=1111039 / frame-threads=3 / numa-pools=8 / wpp / no-pmode / no-pme / no-psnr / no-ssim / log-level=2 / input-csp=1 / input-res=1920x1080 / interlace=0 / total-frames=30534 / level-idc=0 / high-tier=1 / uhd-bd=0 / ref=5 / no-allow-non-conformance / no-repeat-headers / annexb / no-aud / no-hrd / info / hash=0 / no-temporal-layers / open-gop / min-keyint=23 / keyint=250 / gop-lookahead=0 / bframes=8 / b-adapt=2 / b-pyramid / bframe-bias=0 / rc-lookahead=80 / lookahead-slices=4 / scenecut=40 / radl=0 / no-intra-refresh / ctu=64 / min-cu-size=8 / no-rect / no-amp / max-tu-size=32 / tu-inter-depth=1 / tu-intra-depth=1 / limit-tu=0 / rdoq-level=2 / dynamic-rd=0.00 / no-ssim-rd / signhide / no-tskip / nr-intra=0 / nr-inter=0 / no-constrained-intra / no-strong-intra-smoothing / max-merge=4 / limit-refs=3 / limit-modes / me=3 / subme=5 / merange=57 / temporal-mvp / weightp / weightb / no-analyze-src-pics / deblock=-3:-3 / no-sao / no-sao-non-deblock / rd=4 / no-early-skip / no-rskip / no-fast-intra / no-tskip-fast / no-cu-lossless / b-intra / no-splitrd-skip / rdpenalty=0 / psy-rd=1.50 / psy-rdoq=1.80 / no-rd-refine / no-lossless / cbqpoffs=0 / crqpoffs=0 / rc=crf / crf=22.0 / qcomp=0.60 / qpstep=4 / stats-write=0 / stats-read=0 / ipratio=1.40 / pbratio=1.30 / aq-mode=3 / aq-strength=0.90 / cutree / zone-count=0 / no-strict-cbr / qg-size=32 / no-rc-grain / qpmax=69 / qpmin=0 / no-const-vbv / sar=0 / overscan=0 / videoformat=5 / range=0 / colorprim=2 / transfer=2 / colormatrix=2 / chromaloc=0 / display-window=0 / max-cll=0,0 / min-luma=0 / max-luma=1023 / log2-max-poc-lsb=8 / vui-timing-info / vui-hrd-info / slices=1 / no-opt-qp-pps / no-opt-ref-list-length-pps / no-multi-pass-opt-rps / scenecut-bias=0.05 / no-opt-cu-delta-qp / no-aq-motion / no-hdr / no-hdr-opt / no-dhdr10-opt / no-idr-recovery-sei / analysis-reuse-level=5 / scale-factor=0 / refine-intra=0 / refine-inter=0 / refine-mv=0 / no-limit-sao / ctu-info=0 / no-lowpass-dct / refine-mv-type=0 / copy-pic=1 / max-ausize-factor=1.0 / no-dynamic-refine / no-single-sei
Default                                  : Yes
Forced                                   : No

Audio #1
ID                                       : 2
Format                                   : AAC
Format/Info                              : Advanced Audio Codec
Format profile                           : LC
Codec ID                                 : A_AAC
Duration                                 : 21 min 15 s
Bit rate                                 : 384 kb/s
Channel(s)                               : 6 channels
Channel positions                        : Front: L C R, Side: L R, LFE
Sampling rate                            : 48.0 kHz
Frame rate                               : 46.875 FPS (1024 spf)
Compression mode                         : Lossy
Delay relative to video                  : 20 ms
Stream size                              : 58.5 MiB (9%)
Language                                 : English
Default                                  : No
Forced                                   : No

Audio #2
ID                                       : 3
Format                                   : AAC
Format/Info                              : Advanced Audio Codec
Format profile                           : HE-AAC / LC
Codec ID                                 : A_AAC
Duration                                 : 21 min 15 s
Bit rate                                 : 80.0 kb/s
Channel(s)                               : 2 channels
Channel positions                        : Front: L R
Sampling rate                            : 48.0 kHz / 24.0 kHz
Frame rate                               : 23.438 FPS (1024 spf)
Compression mode                         : Lossy
Delay relative to video                  : 40 ms
Stream size                              : 12.2 MiB (2%)
Language                                 : Spanish
Default                                  : No
Forced                                   : No

Audio #3
ID                                       : 4
Format                                   : AAC
Format/Info                              : Advanced Audio Codec
Format profile                           : HE-AAC / LC
Codec ID                                 : A_AAC
Duration                                 : 21 min 15 s
Bit rate                                 : 80.0 kb/s
Channel(s)                               : 2 channels
Channel positions                        : Front: L R
Sampling rate                            : 48.0 kHz / 24.0 kHz
Frame rate                               : 23.438 FPS (1024 spf)
Compression mode                         : Lossy
Delay relative to video                  : 40 ms
Stream size                              : 12.2 MiB (2%)
Language                                 : Portuguese
Default                                  : No
Forced                                   : No

Subtitle #1
ID                                       : 5
Format                                   : VobSub
Muxing mode                              : zlib
Codec ID                                 : S_VOBSUB
Codec ID/Info                            : Picture based subtitle format used on DVDs
Duration                                 : 21 min 9 s
Bit rate                                 : 16.2 kb/s
Count of elements                        : 350
Stream size                              : 2.46 MiB (0%)
Language                                 : English
Default                                  : No
Forced                                   : No

Subtitle #2
ID                                       : 6
Format                                   : VobSub
Muxing mode                              : zlib
Codec ID                                 : S_VOBSUB
Codec ID/Info                            : Picture based subtitle format used on DVDs
Duration                                 : 21 min 9 s
Bit rate                                 : 14.2 kb/s
Count of elements                        : 358
Stream size                              : 2.15 MiB (0%)
Language                                 : French
Default                                  : No
Forced                                   : No

Subtitle #3
ID                                       : 7
Format                                   : VobSub
Muxing mode                              : zlib
Codec ID                                 : S_VOBSUB
Codec ID/Info                            : Picture based subtitle format used on DVDs
Duration                                 : 21 min 9 s
Bit rate                                 : 15.5 kb/s
Count of elements                        : 363
Stream size                              : 2.34 MiB (0%)
Language                                 : Spanish
Default                                  : No
Forced                                   : No

Subtitle #4
ID                                       : 8
Format                                   : VobSub
Muxing mode                              : zlib
Codec ID                                 : S_VOBSUB
Codec ID/Info                            : Picture based subtitle format used on DVDs
Duration                                 : 21 min 9 s
Bit rate                                 : 15.4 kb/s
Count of elements                        : 340
Stream size                              : 2.33 MiB (0%)
Language                                 : Spanish
Default                                  : No
Forced                                   : No

Subtitle #5
ID                                       : 9
Format                                   : VobSub
Muxing mode                              : zlib
Codec ID                                 : S_VOBSUB
Codec ID/Info                            : Picture based subtitle format used on DVDs
Duration                                 : 21 min 9 s
Bit rate                                 : 17.2 kb/s
Count of elements                        : 341
Stream size                              : 2.60 MiB (0%)
Language                                 : Portuguese
Default                                  : No
Forced                                   : No

Subtitle #6
ID                                       : 10
Format                                   : VobSub
Muxing mode                              : zlib
Codec ID                                 : S_VOBSUB
Codec ID/Info                            : Picture based subtitle format used on DVDs
Duration                                 : 20 min 32 s
Bit rate                                 : 44 b/s
Count of elements                        : 2
Stream size                              : 6.74 KiB (0%)
Language                                 : Spanish
Default                                  : No
Forced                                   : No

Subtitle #7
ID                                       : 11
Format                                   : VobSub
Muxing mode                              : zlib
Codec ID                                 : S_VOBSUB
Codec ID/Info                            : Picture based subtitle format used on DVDs
Duration                                 : 11 min 57 s
Bit rate                                 : 95 b/s
Count of elements                        : 2
Stream size                              : 8.40 KiB (0%)
Language                                 : Portuguese
Default                                  : No
Forced                                   : No

Menu
00:00:00.000                             : en:Chapter 01
00:00:38.413                             : en:Chapter 02
00:02:37.282                             : en:Chapter 03
00:10:25.166                             : en:Chapter 04
00:19:54.735                             : en:Chapter 05
00:20:45.786                             : en:Chapter 06

Source Information
Release : The.Big.Bang.Theory.S08.1080p.BluRay.DTS-HD.MA5.1.H.264-nLiBRA (Thanks!)



Note from QxR:
Whilst we are happy for our releases to be re-posted on a platform we aren't on, please do so in an 'as-is' format. We ask that you do not create a new torrent, include all descriptions you see above including the QxR logo, tags, notes and screenshots. If you'd like to become a permanent poster on a website we don't post to, feel free to get in contact with a QxR member.
Category:TV > HEVC/x265
Lang:English  English
Total Size:18.61 GB
Info Hash:91155e5ebda5344109a22a5a00b905b7582de63e
Added By:QxR
Date Added:01-11-2018 22:12:33

Files

File List: 
 File Size
Featurettes/2014 Big Bang Theory Comic-Con Panel.mkv935 MB
Featurettes/Constellation Prize Chuck, Jim & Kaley Make the Hollywood Walk of Fame.mkv168 MB
Featurettes/Gag Reel.mkv84 MB
Featurettes/Here's to You, Carol Ann Susi.mkv144 MB
Featurettes/It's a Quark... It's an Atom... It's the #BBTSuperfans!.mkv303 MB
Featurettes/Shooting Stars BBT on BBT.mkv147 MB
The Big Bang Theory (2007) - S08E01 - The Locomotion Interruption (1080p BluRay x265 RCVR).mkv675 MB
The Big Bang Theory (2007) - S08E02 - The Junior Professor Solution (1080p BluRay x265 RCVR).mkv683 MB
The Big Bang Theory (2007) - S08E03 - The First Pitch Insufficiency (1080p BluRay x265 RCVR).mkv705 MB
The Big Bang Theory (2007) - S08E04 - The Hook-Up Reverberation (1080p BluRay x265 RCVR).mkv749 MB
The Big Bang Theory (2007) - S08E05 - The Focus Attenuation (1080p BluRay x265 RCVR).mkv690 MB
The Big Bang Theory (2007) - S08E06 - The Expedition Approximation (1080p BluRay x265 RCVR).mkv665 MB
The Big Bang Theory (2007) - S08E07 - The Misinterpretation Agitation (1080p BluRay x265 RCVR).mkv685 MB
The Big Bang Theory (2007) - S08E08 - The Prom Equivalency (1080p BluRay x265 RCVR).mkv603 MB
The Big Bang Theory (2007) - S08E09 - The Septum Deviation (1080p BluRay x265 RCVR).mkv712 MB
The Big Bang Theory (2007) - S08E10 - The Champagne Reflection (1080p BluRay x265 RCVR).mkv1.50 GB
The Big Bang Theory (2007) - S08E11 - The Clean Room Infiltration (1080p BluRay x265 RCVR).mkv699 MB
The Big Bang Theory (2007) - S08E12 - The Space Probe Disintegration (1080p BluRay x265 RCVR).mkv704 MB
The Big Bang Theory (2007) - S08E13 - The Anxiety Optimization (1080p BluRay x265 RCVR).mkv671 MB
The Big Bang Theory (2007) - S08E14 - The Troll Manifestation (1080p BluRay x265 RCVR).mkv778 MB
The Big Bang Theory (2007) - S08E15 - The Comic Book Store Regeneration (1080p BluRay x265 RCVR).mkv719 MB
The Big Bang Theory (2007) - S08E16 - The Intimacy Acceleration (1080p BluRay x265 RCVR).mkv690 MB
The Big Bang Theory (2007) - S08E17 - The Colonization Application (1080p BluRay x265 RCVR).mkv733 MB
The Big Bang Theory (2007) - S08E18 - The Leftover Thermalization (1080p BluRay x265 RCVR).mkv660 MB
The Big Bang Theory (2007) - S08E19 - The Skywalker Incursion (1080p BluRay x265 RCVR).mkv707 MB
The Big Bang Theory (2007) - S08E20 - The Fortification Implementation (1080p BluRay x265 RCVR).mkv697 MB
The Big Bang Theory (2007) - S08E21 - The Communication Deterioration (1080p BluRay x265 RCVR).mkv634 MB
The Big Bang Theory (2007) - S08E22 - The Graduation Transmission (1080p BluRay x265 RCVR).mkv626 MB
The Big Bang Theory (2007) - S08E23 - The Maternal Combustion (1080p BluRay x265 RCVR).mkv698 MB
The Big Bang Theory (2007) - S08E24 - The Commitment Determination (1080p BluRay x265 RCVR).mkv557 MB



Loading...
Comments

There are currently no comments. Be the first one to write something !

Disclaimer: None of the files shown here are actually hosted or transmitted by this server. The links are provided solely by this site's users. The site moderation is also a service provided by the site's users. The administrator of this site (ettv.tv) cannot be held responsible for what its users post, or any other actions of its users. You may not use this site to distribute or download any material when you do not have the legal rights to do so. It is your own responsibility to adhere to these terms.

Sitemap